Loading...

J.J. Cale – In Session At The Paradise Studios Los Angeles, 1979

Posted By : janwal46 | Date : 15 Nov 2009 03:01:29 | Comments : 8 |
|




J.J. Cale - In Session At The Paradise Studios Los Angeles, 1979
Classic Pictures Ent. | 1979 | Country Blues Rock | EAC RIP | FLAC+CUE+LOG+HQ-Covers (400Dpi) | 477Mb+13Mb

This is a wonderful example of an almost forgotten studio session with a couple of greats - J. J. Cale and Leon Russell. If you are looking for some wonderful music and some inspired guitar playing, J. J. will deliver. If you are looking for some classic piano and organ playing by Leon, this is the CD to grab. The music is inspired and hot. I only wish that Eric Clapton could have been part of this session. But hey, for that we have "The Road to Escondido" to hear EC and JJ jam like crazy.

Personnel:

J.J. Cale
Leon Russell
Larry Bell
Ambrose Cambell
Marty Grebb
Nick Rather
Bill Boatman
Jimmy Karstein
Pat "Taco" Ryan
Shamsi Sarumi

Tracklist:

01. Nowhere To Run
02. Cocaine
03. Ten Easy Lessons
04. Sensitive Kind
05. Hands Off Her
06. Louisiana
07. Going Down
08. Roll On
09. No Sweat
10. Crazy Mama
11. Fate Of A Fool
12. Boilin' Pot
13. After Midnight
14. Same Ole Blues
15. Don't Cry Sister
16. Call Me The Breeze
17. Ever Lovin' Woman
18. Katy Cool Lady
19. Lies
20. Don't Wait

This rare session, with Leon Russell on Keyboards was recorded at The Paradise Studios, Los Angeles in 1979. The master recordings were never released and laid gathering dust, when they were discovered in Leon Russell's farmhouse studio in Nashville. In the summer of 2002 the original analogue multi-tracks were restored, digitally remastered and re-mixed with J.J. Cale at the Karma Studios, San Pedro, California.

Sound Quality: 8

EAC LOG
Exact Audio Copy V0.99 prebeta 5 from 4. May 2009

EAC extraction logfile from 15. November 2009, 00:30

J.J. Cale / In Session At The Paradise Studios, LA 1979

Used drive : _NEC DVD_RW ND-3520A Adapter: 1 ID: 1

Read mode : Secure
Utilize accurate stream : Yes
Defeat audio cache : Yes
Make use of C2 pointers : No

Read offset correction : 48
Overread into Lead-In and Lead-Out : No
Fill up missing offset samples with silence : Yes
Delete leading and trailing silent blocks : No
Null samples used in CRC calculations : No
Used interface : Native Win32 interface for Win NT & 2000

Used output format : Internal WAV Routines
Sample format : 44.100 Hz; 16 Bit; Stereo


TOC of the extracted CD

Track | Start | Length | Start sector | End sector
---------------------------------------------------------
1 | 0:00.00 | 2:45.38 | 0 | 12412
2 | 2:45.38 | 3:00.65 | 12413 | 25977
3 | 5:46.28 | 4:22.73 | 25978 | 45700
4 | 10:09.26 | 3:35.45 | 45701 | 61870
5 | 13:44.71 | 3:41.14 | 61871 | 78459
6 | 17:26.10 | 2:40.54 | 78460 | 90513
7 | 20:06.64 | 5:16.02 | 90514 | 114215
8 | 25:22.66 | 2:53.62 | 114216 | 127252
9 | 28:16.53 | 3:15.09 | 127253 | 141886
10 | 31:31.62 | 3:15.30 | 141887 | 156541
11 | 34:47.17 | 2:57.23 | 156542 | 169839
12 | 37:44.40 | 3:38.14 | 169840 | 186203
13 | 41:22.54 | 4:15.57 | 186204 | 205385
14 | 45:38.36 | 2:57.43 | 205386 | 218703
15 | 48:36.04 | 3:07.29 | 218704 | 232757
16 | 51:43.33 | 3:24.53 | 232758 | 248110
17 | 55:08.11 | 2:36.49 | 248111 | 259859
18 | 57:44.60 | 2:31.70 | 259860 | 271254
19 | 60:16.55 | 3:21.61 | 271255 | 286390
20 | 63:38.41 | 3:31.25 | 286391 | 302240


Range status and errors

Selected range

Filename F:\AVAXHOME\J.J. Cale - In Session At The Paradise Studios, LA (1979)\J.J. Cale - In Session At The Paradise Studios, LA 1979.wav

Peak Level 100.0 %
Range Quality 100.0 %
Copy CRC F176B1B9
Copy OK

No errors occurred


AccurateRip summary

Track 1 accurately ripped (confidence 4) [DB71465D]
Track 2 accurately ripped (confidence 4) [7FDD45AB]
Track 3 accurately ripped (confidence 4) [DC2F4D70]
Track 4 accurately ripped (confidence 4) [9481070B]
Track 5 accurately ripped (confidence 4) [72E0E6A4]
Track 6 accurately ripped (confidence 4) [6104122C]
Track 7 accurately ripped (confidence 4) [053E3F4B]
Track 8 accurately ripped (confidence 4) [F9FA5B28]
Track 9 accurately ripped (confidence 4) [FBFC5D41]
Track 10 accurately ripped (confidence 4) [2CE2900C]
Track 11 accurately ripped (confidence 4) [CB37DAC9]
Track 12 accurately ripped (confidence 4) [75062C51]
Track 13 accurately ripped (confidence 4) [71A4921F]
Track 14 accurately ripped (confidence 4) [C80357E3]
Track 15 accurately ripped (confidence 4) [3C864214]
Track 16 accurately ripped (confidence 4) [18B2F9C6]
Track 17 accurately ripped (confidence 4) [BD2A66CE]
Track 18 accurately ripped (confidence 4) [F5B80E84]
Track 19 accurately ripped (confidence 4) [175BDD77]
Track 20 accurately ripped (confidence 4) [7A5A72CF]

All tracks accurately ripped

End of status report

RIPPED BY JANWAL46


RS Links:



In case you encounter dead links in any of my posts, please send me a private message !!!!


Password: janwal46

Say thanks, but please, no mirrors and/or direct links in your comments !!!!

ADVERTISING » Very Fast Download! « ADVERTISING


Posted By: musician3 Date: 15 Nov 2009 04:58:56
Amazing!!!.....Thank You Janwal
Posted By: JacquesP Date: 15 Nov 2009 10:37:29
Thanks Jan for all JJ Cale albums, you are great!!!
Posted By: krodha Date: 18 Nov 2009 16:54:25
gOOD..gOOD.. vERY GOOD ALBUM ! Thank you very much
Posted By: Spanky2 Date: 23 Nov 2009 03:09:06
Thanks a lot!
Posted By: JVAST Date: 26 Dec 2009 08:24:20
THNX A LOT!!!
Posted By: jazzever Date: 15 Mar 2010 21:02:32
Oh man,this is without doubt the best album of JJCale I heard until now, and I have all their recorded work.
While some songs on this album are part of other discs recorded by him, here the record is superior. Just freack me out !
Thank you endeeeeeed !!

Posted By: AgnusDei Date: 21 May 2010 05:43:53
Thank you very much for the JJ colllection.
Posted By: axisa Date: 27 Feb 2011 21:54:02
It's been deleted.