Loading...

Eric Burdon – Rare Masters II (1996)

Posted By : janwal46 | Date : 20 Jan 2010 21:12:43 | Comments : 3 |
|




Eric Burdon – The Unreleased Eric Burdon (1992)
SPV | 1996 | Rock Blues R&B | EAC RIP | FLAC+CUE+LOG+HQ-Covers (400Dpi) | 389Mb+20Mb

This album is roughly the same as “The Unreleased Eric Burdon”. The tracklist is the same from track 01 up till and incl. 08. Track 09 (I’m Crying) is track 10 on TUEB…ah well, you can find out the remaining differences by yourselves :) !! It’s a must have for the fan and/or collector anyway !!

Tracklist:

01. Crawling Kingsnake
02. The Road
03. Power Company
04. Heart Attack
05. Don't Let Me Be Misunderstood
06. Boom Boom
07. Don't Bring Me Down
08. It Hurts Me Too
09. I'm Crying
10. Wall Of Silence
11. New York City

Sound Quality: 8

EAC LOG
Exact Audio Copy V0.99 prebeta 5 from 4. May 2009

EAC extraction logfile from 20. January 2010, 21:02

Burdon, Eric / Rare Masters II

Used drive : Optiarc DVD RW AD-7173A Adapter: 1 ID: 0

Read mode : Secure
Utilize accurate stream : Yes
Defeat audio cache : Yes
Make use of C2 pointers : No

Read offset correction : 48
Overread into Lead-In and Lead-Out : No
Fill up missing offset samples with silence : Yes
Delete leading and trailing silent blocks : No
Null samples used in CRC calculations : Yes
Used interface : Native Win32 interface for Win NT & 2000

Used output format : Internal WAV Routines
Sample format : 44.100 Hz; 16 Bit; Stereo


TOC of the extracted CD

Track | Start | Length | Start sector | End sector
---------------------------------------------------------
1 | 0:00.32 | 11:02.50 | 32 | 49731
2 | 11:03.07 | 4:50.00 | 49732 | 71481
3 | 15:53.07 | 4:41.00 | 71482 | 92556
4 | 20:34.07 | 4:07.38 | 92557 | 111119
5 | 24:41.45 | 6:36.00 | 111120 | 140819
6 | 31:17.45 | 4:48.00 | 140820 | 162419
7 | 36:05.45 | 5:13.50 | 162420 | 185944
8 | 41:19.20 | 10:16.57 | 185945 | 232201
9 | 51:36.02 | 5:02.38 | 232202 | 254889
10 | 56:38.40 | 3:09.70 | 254890 | 269134
11 | 59:48.35 | 5:25.72 | 269135 | 293581


Range status and errors

Selected range

Filename F:\AVAXHOME\Eric Burdon - Rare Masters II (1996)\Eric Burdon - Rare Masters II.wav

Peak level 94.7 %
Range quality 100.0 %
Copy CRC C6399779
Copy OK

No errors occurred


AccurateRip summary

Track 1 accurately ripped (confidence 2) [3A538874]
Track 2 accurately ripped (confidence 2) [6993521B]
Track 3 accurately ripped (confidence 2) [2418F578]
Track 4 accurately ripped (confidence 2) [CB1CC196]
Track 5 accurately ripped (confidence 2) [F4216C78]
Track 6 accurately ripped (confidence 2) [D13208CA]
Track 7 accurately ripped (confidence 2) [F8526CA9]
Track 8 accurately ripped (confidence 2) [CD33BEA8]
Track 9 accurately ripped (confidence 2) [ECC196B2]
Track 10 accurately ripped (confidence 2) [14ACCFEA]
Track 11 accurately ripped (confidence 2) [FFC28749]

All tracks accurately ripped

End of status report

RIPPED BY JANWAL46

RS Links:



In case you encounter dead links in any of my posts, please send me a private message !!!!


Password: janwal46

Say thanks, but please, no mirrors and/or direct links in your comments !!!!

ADVERTISING » Click here to download Ebooks/Magazines for free « ADVERTISING


Posted By: wersollsschonsein Date: 20 Jan 2010 21:20:06
Lovely......Cheers!

This is Vol 2. Is Vol 1 coming as well?
Posted By: Spanky2 Date: 25 Jan 2010 12:57:37
Thanks a lot!
Posted By: machaon Date: 05 Sep 2010 02:30:18
please reup it