Loading...

Stratos Dionysiou - People want songs (Best of) [4CD, 2012]

Posted By : Speedyclick | Date : 30 Apr 2012 06:59:20 | Comments : 1 |
|



Stratos Dionysiou - People want songs (Best of) [4CD, 2012]
EAC Rip | FLAC (image & cue & log) & mp3 @ 320 kbps | tracks: 60 | Scans | 3:00:56 | ~ 1,22 Gb & 447 Mb
Label: MINOS-EMI | 5% recovery record | Genre: Folk songs, bouzouki

Stratos Dionysiou (8 November 1934 - 11 May 1990) was a very popular "laika" greek singer with millions of fans in Greece and worldwide. His voice had a unique timbre and he recorded hundreds of very beautiful songs by all the legendary masters of laika and rebetika like Vasilis Tsitsanis, Yiannis Papaioannou, Giorgos Mitsakis and Manolis Chiotis. But his great success came when he recorded a zeimbekiko by Mimis Plessas, "Fire is raining down my path" that became his mega hit followed by many others by one of the most talented greek composers ever, Akis Panou. This superb compilation includes 60 top hits of Stratos Dionysiou. Enjoy the singer that is considered to be among the five "best" folk greek voices ever.


TRACKLIST

CD1 (44:29 | ~ 330 Mb & 138 Mb)
01. Fire is raining down my path (Vrehi fotia sti strata mou)
02. It is late now (Arga ine pia arga)
03. Women women (Ginekes ginekes)
04. My heart stop suffering (Kardia mou papse na ponas)
05. Why you blame the boy (Ti sou ftei to pedi)
06. As the ships leave (Opos fevgoun ta karavia)
07. The yellow letter (To kitrinismeno grama)
08. Baglamas and bouzoukis (Baglamades ke bouzoukia)
09. You are pretending (Ipokrinese)
10. I came and I leave like a gentleman (Kirios irtha kirios fevgo)
11. My woman (Gineka mou)
12. Just a minute kioskman (Ena lepto periptera)
13. They were fake (Itan pseftika)
14. You will keep being cool (Ke pali magkas tha 'se)
15. You call me love (Me les agapi)

EAC log
Exact Audio Copy V1.0 beta 3 from 29. August 2011

EAC extraction logfile from 29. April 2012, 12:09

Stratos Dionysiou / O laos tragoudi thelei CD1

Used drive : HL-DT-STDVDRAM GH10N Adapter: 1 ID: 1

Read mode : Secure
Utilize accurate stream : Yes
Defeat audio cache : Yes
Make use of C2 pointers : No

Read offset correction : 667
Overread into Lead-In and Lead-Out : No
Fill up missing offset samples with silence : Yes
Delete leading and trailing silent blocks : No
Null samples used in CRC calculations : Yes
Used interface : Native Win32 interface for Win NT & 2000

Used output format : User Defined Encoder
Selected bitrate : 1024 kBit/s
Quality : High
Add ID3 tag : Yes
Command line compressor : C:\Program Files\Exact Audio Copy New\Flac\flac.exe
Additional command line options : -V -5 -T "artist=%artist%" -T "title=%title%" -T "album=%albumtitle%" -T "tracknumber=%tracknr2%" -T "genre=%genre%" -5 %source%


TOC of the extracted CD

Track | Start | Length | Start sector | End sector
---------------------------------------------------------
1 | 0:00.00 | 2:48.73 | 0 | 12672
2 | 2:48.73 | 2:53.21 | 12673 | 25668
3 | 5:42.19 | 2:50.73 | 25669 | 38491
4 | 8:33.17 | 3:16.48 | 38492 | 53239
5 | 11:49.65 | 2:29.44 | 53240 | 64458
6 | 14:19.34 | 2:59.44 | 64459 | 77927
7 | 17:19.03 | 3:01.41 | 77928 | 91543
8 | 20:20.44 | 3:21.25 | 91544 | 106643
9 | 23:41.69 | 3:08.17 | 106644 | 120760
10 | 26:50.11 | 2:56.00 | 120761 | 133960
11 | 29:46.11 | 3:48.22 | 133961 | 151082
12 | 33:34.33 | 2:59.38 | 151083 | 164545
13 | 36:33.71 | 2:03.71 | 164546 | 173841
14 | 38:37.67 | 2:26.56 | 173842 | 184847
15 | 41:04.48 | 3:24.57 | 184848 | 200204


Range status and errors

Selected range

Filename R:\EAC Rips\GREEK\Stratos Dionysiou - O laos tragoudi thelei (4CD)\StraDio1\Stratos Dionysiou - O laos tragoudi thelei CD1.wav

Peak level 91.1 %
Extraction speed 3.3 X
Range quality 100.0 %
Test CRC 949F5EC5
Copy CRC 949F5EC5
Copy OK

No errors occurred


AccurateRip summary

Track 1 not present in database
Track 2 not present in database
Track 3 not present in database
Track 4 not present in database
Track 5 not present in database
Track 6 not present in database
Track 7 not present in database
Track 8 not present in database
Track 9 not present in database
Track 10 not present in database
Track 11 not present in database
Track 12 not present in database
Track 13 not present in database
Track 14 not present in database
Track 15 not present in database

None of the tracks are present in the AccurateRip database

End of status report

---- CUETools DB Plugin V2.1.3

[CTDB TOCID: EKvY35KszJ.urPYqca74kZqzZY0-] disk not present in database, Submit result: EKvY35KszJ.urPYqca74kZqzZY0- has been uploaded


==== Log checksum FBD743B1D46414ABAB560C2E2D5A819850A273172A952F1702D358224903FA31 ====

CD2 (44:09 | ~ 294 Mb & 100 Mb)
01. The woman's heart (Tis ginekas i kardia)
02. Shameless woman (Afilotimi)
03. At Munich's railstation (Sto stathmo tou Monahou)
04. You fooled me (Me xegelases)
05. The break-off is death (Thanatos o horismos)
06. In my blurred mind (Sti tholomeni skepsi mou)
07. Remember (Thimisou)
08. Ingratitude (Aharistia)
09. If life ended here (An telione i zoi)
10. An evening that I'll drink (Ena vradi pou tha pio)
11. Great mistakes (Sfalmata gia klamata)
12. Woman of destruction (Gineka tis katastrofis)
13. The Turk (O memetis)
14. My pain, me and the loneliness (O ponos mou, ego ki i monaxia)
15. An eagle fell (Enas aitos gkremistike)

EAC log
Exact Audio Copy V1.0 beta 3 from 29. August 2011

EAC extraction logfile from 29. April 2012, 12:45

Stratos Dionysiou / O laos tragoudi thelei CD2

Used drive : HL-DT-STDVDRAM GH10N Adapter: 1 ID: 1

Read mode : Secure
Utilize accurate stream : Yes
Defeat audio cache : Yes
Make use of C2 pointers : No

Read offset correction : 667
Overread into Lead-In and Lead-Out : No
Fill up missing offset samples with silence : Yes
Delete leading and trailing silent blocks : No
Null samples used in CRC calculations : Yes
Used interface : Native Win32 interface for Win NT & 2000

Used output format : User Defined Encoder
Selected bitrate : 1024 kBit/s
Quality : High
Add ID3 tag : Yes
Command line compressor : C:\Program Files\Exact Audio Copy New\Flac\flac.exe
Additional command line options : -V -5 -T "artist=%artist%" -T "title=%title%" -T "album=%albumtitle%" -T "tracknumber=%tracknr2%" -T "genre=%genre%" -5 %source%


TOC of the extracted CD

Track | Start | Length | Start sector | End sector
---------------------------------------------------------
1 | 0:00.00 | 3:26.54 | 0 | 15503
2 | 3:26.54 | 3:01.19 | 15504 | 29097
3 | 6:27.73 | 3:13.51 | 29098 | 43623
4 | 9:41.49 | 2:57.38 | 43624 | 56936
5 | 12:39.12 | 2:47.55 | 56937 | 69516
6 | 15:26.67 | 3:20.62 | 69517 | 84578
7 | 18:47.54 | 3:16.00 | 84579 | 99278
8 | 22:03.54 | 2:51.39 | 99279 | 112142
9 | 24:55.18 | 3:12.51 | 112143 | 126593
10 | 28:07.69 | 2:27.49 | 126594 | 137667
11 | 30:35.43 | 3:24.50 | 137668 | 153017
12 | 34:00.18 | 2:34.64 | 153018 | 164631
13 | 36:35.07 | 2:34.30 | 164632 | 176211
14 | 39:09.37 | 2:30.41 | 176212 | 187502
15 | 41:40.03 | 2:29.48 | 187503 | 198725


Range status and errors

Selected range

Filename R:\EAC Rips\GREEK\Stratos Dionysiou - O laos tragoudi thelei (4CD)\StraDio2\Stratos Dionysiou - O laos tragoudi thelei CD2.wav

Peak level 94.4 %
Extraction speed 3.7 X
Range quality 100.0 %
Test CRC 9D0023AE
Copy CRC 9D0023AE
Copy OK

No errors occurred


AccurateRip summary

Track 1 not present in database
Track 2 not present in database
Track 3 not present in database
Track 4 not present in database
Track 5 not present in database
Track 6 not present in database
Track 7 not present in database
Track 8 not present in database
Track 9 not present in database
Track 10 not present in database
Track 11 not present in database
Track 12 not present in database
Track 13 not present in database
Track 14 not present in database
Track 15 not present in database

None of the tracks are present in the AccurateRip database

End of status report

---- CUETools DB Plugin V2.1.3

[CTDB TOCID: L7JzpOoZn.QX9SI8NLCR7TLODp8-] disk not present in database, Submit result: L7JzpOoZn.QX9SI8NLCR7TLODp8- has been uploaded


==== Log checksum 93DAF0C19FE37B783993515F67D13FC45CFC6F525CBFD9CC6824F8BE8C52CF5B ====

CD3 (46:59 | ~ 321 Mb & 107 Mb)
01. Listen friend (Akou vre file)
02. Better with you and crazy (Kalitera mazi sou ke trelos)
03. Who told you about the tough guys (Pios sou ipe gia tous magkes)
04. People want songs (O laos tragoudi theli)
05. You took them all (Ta pires ola)
06. The man from Salonica (O Salonikios)
07. Nikola's bouzouki (To bouzouki tou Nikola)
08. The laughing stock of the World (Tou kosmou to perigelo)
09. The taxi driver (O taxitzis)
10. I have a bohemian heart (Eho kardia mpoemisa)
11. When a man cries (Otan enas antras klei)
12. The scavenger (O paliatzis)
13. My heart you had loved (Kardia mou ihes agapisi)
14. Last night in the tavern (Htes to vradi sti taverna)
15. My rebel heart (Kardia mou alitisa)

EAC log
Exact Audio Copy V1.0 beta 3 from 29. August 2011

EAC extraction logfile from 29. April 2012, 18:32

Stratos Dionysiou / O laos tragoudi thelei CD3

Used drive : HL-DT-STDVDRAM GH10N Adapter: 1 ID: 1

Read mode : Secure
Utilize accurate stream : Yes
Defeat audio cache : Yes
Make use of C2 pointers : No

Read offset correction : 667
Overread into Lead-In and Lead-Out : No
Fill up missing offset samples with silence : Yes
Delete leading and trailing silent blocks : No
Null samples used in CRC calculations : Yes
Used interface : Native Win32 interface for Win NT & 2000

Used output format : User Defined Encoder
Selected bitrate : 1024 kBit/s
Quality : High
Add ID3 tag : Yes
Command line compressor : C:\Program Files\Exact Audio Copy New\Flac\flac.exe
Additional command line options : -V -5 -T "artist=%artist%" -T "title=%title%" -T "album=%albumtitle%" -T "tracknumber=%tracknr2%" -T "genre=%genre%" -5 %source%


TOC of the extracted CD

Track | Start | Length | Start sector | End sector
---------------------------------------------------------
1 | 0:00.00 | 3:35.18 | 0 | 16142
2 | 3:35.18 | 3:35.51 | 16143 | 32318
3 | 7:10.69 | 3:08.11 | 32319 | 46429
4 | 10:19.05 | 3:35.24 | 46430 | 62578
5 | 13:54.29 | 3:43.10 | 62579 | 79313
6 | 17:37.39 | 3:47.03 | 79314 | 96341
7 | 21:24.42 | 2:57.41 | 96342 | 109657
8 | 24:22.08 | 2:20.16 | 109658 | 120173
9 | 26:42.24 | 2:48.09 | 120174 | 132782
10 | 29:30.33 | 2:35.27 | 132783 | 144434
11 | 32:05.60 | 2:41.60 | 144435 | 156569
12 | 34:47.45 | 3:19.34 | 156570 | 171528
13 | 38:07.04 | 3:14.68 | 171529 | 186146
14 | 41:21.72 | 2:59.40 | 186147 | 199611
15 | 44:21.37 | 2:38.27 | 199612 | 211488


Range status and errors

Selected range

Filename R:\EAC Rips\GREEK\Stratos Dionysiou - O laos tragoudi thelei (4CD)\StraDio3\Stratos Dionysiou - O laos tragoudi thelei CD3.wav

Peak level 91.1 %
Extraction speed 3.8 X
Range quality 100.0 %
Test CRC 13C72C13
Copy CRC 13C72C13
Copy OK

No errors occurred


AccurateRip summary

Track 1 not present in database
Track 2 not present in database
Track 3 not present in database
Track 4 not present in database
Track 5 not present in database
Track 6 not present in database
Track 7 not present in database
Track 8 not present in database
Track 9 not present in database
Track 10 not present in database
Track 11 not present in database
Track 12 not present in database
Track 13 not present in database
Track 14 not present in database
Track 15 not present in database

None of the tracks are present in the AccurateRip database

End of status report

---- CUETools DB Plugin V2.1.3

[CTDB TOCID: KXkQIJg1t6KA9KDGA6PpctVawRA-] disk not present in database, Submit result: KXkQIJg1t6KA9KDGA6PpctVawRA- has been uploaded


==== Log checksum 1D4B318EB829515263045DF398DE3D98D3444B7D2AB7240E45A0502B11A5CD25 ====

CD4 (45:19 | ~ 301 Mb & 102 Mb)
01. I the stranger (Ego o xenos)
02. You obliged us (Mas ipohreoses)
03. Much more for me (Ego na dis)
04. Leaving (Fevgontas)
05. Call me a bad boy (Lege me paliopedo)
06. You think so (Nomizis)
07. She killed me because I loved her (Me skotose giati tin agapousa)
08. And by saying (Ke lege lege)
09. Why my good neighbor? (Giati kale gitonisa)
10. My dangerous love (Agapi mou epikindini)
11. I swear to the wheel in my hands (Sto timoni pou kratao)
12. Make me some space to dance (Kante pera na horepso)
13. And it was seven o'clock (Ke i ora itan efta)
14. I will take a thousand locks (Tha paro hilies klidaries)
15. I am asking for your love (Agapi sou zito)

EAC log
Exact Audio Copy V1.0 beta 3 from 29. August 2011

EAC extraction logfile from 29. April 2012, 19:09

Stratos Dionysiou / O laos tragoudi thelei CD4

Used drive : HL-DT-STDVDRAM GH10N Adapter: 1 ID: 1

Read mode : Secure
Utilize accurate stream : Yes
Defeat audio cache : Yes
Make use of C2 pointers : No

Read offset correction : 667
Overread into Lead-In and Lead-Out : No
Fill up missing offset samples with silence : Yes
Delete leading and trailing silent blocks : No
Null samples used in CRC calculations : Yes
Used interface : Native Win32 interface for Win NT & 2000

Used output format : User Defined Encoder
Selected bitrate : 1024 kBit/s
Quality : High
Add ID3 tag : Yes
Command line compressor : C:\Program Files\Exact Audio Copy New\Flac\flac.exe
Additional command line options : -V -5 -T "artist=%artist%" -T "title=%title%" -T "album=%albumtitle%" -T "tracknumber=%tracknr2%" -T "genre=%genre%" -5 %source%


TOC of the extracted CD

Track | Start | Length | Start sector | End sector
---------------------------------------------------------
1 | 0:00.00 | 3:12.15 | 0 | 14414
2 | 3:12.15 | 2:55.26 | 14415 | 27565
3 | 6:07.41 | 3:10.12 | 27566 | 41827
4 | 9:17.53 | 3:32.07 | 41828 | 57734
5 | 12:49.60 | 2:30.09 | 57735 | 68993
6 | 15:19.69 | 3:05.17 | 68994 | 82885
7 | 18:25.11 | 2:52.64 | 82886 | 95849
8 | 21:18.00 | 3:00.23 | 95850 | 109372
9 | 24:18.23 | 3:10.49 | 109373 | 123671
10 | 27:28.72 | 2:42.02 | 123672 | 135823
11 | 30:10.74 | 2:55.66 | 135824 | 149014
12 | 33:06.65 | 3:00.65 | 149015 | 162579
13 | 36:07.55 | 3:36.05 | 162580 | 178784
14 | 39:43.60 | 2:44.66 | 178785 | 191150
15 | 42:28.51 | 2:50.25 | 191151 | 203925


Range status and errors

Selected range

Filename R:\EAC Rips\GREEK\Stratos Dionysiou - O laos tragoudi thelei (4CD)\StraDio4\Stratos Dionysiou - O laos tragoudi thelei CD4.wav

Peak level 94.4 %
Extraction speed 3.8 X
Range quality 100.0 %
Test CRC BA74D9C8
Copy CRC BA74D9C8
Copy OK

No errors occurred


AccurateRip summary

Track 1 not present in database
Track 2 not present in database
Track 3 not present in database
Track 4 not present in database
Track 5 not present in database
Track 6 not present in database
Track 7 not present in database
Track 8 not present in database
Track 9 not present in database
Track 10 not present in database
Track 11 not present in database
Track 12 not present in database
Track 13 not present in database
Track 14 not present in database
Track 15 not present in database

None of the tracks are present in the AccurateRip database

End of status report

---- CUETools DB Plugin V2.1.3

[CTDB TOCID: oysDYa_xTkzbnBPHHDn49qmPc5E-] disk not present in database, Submit result: oysDYa_xTkzbnBPHHDn49qmPc5E- has been uploaded


==== Log checksum AAF2DAB700FE9B5A9A775DB8C6CFD1D10A04EB8DB8746180806DAAC162695F48 ====

Quality lossless (flac) & lossy (mp3 @ 320 kbps)

Download Filepost
Download EasyBytez
Download Rapidgator
Download Filefactory

ADVERTISING » Click here to download Ebooks/Magazines for free « ADVERTISING


Posted By: Eimarmeni Date: 30 Apr 2012 16:43:48
Yeeeeeiiiiiii, Stratos!!!!!