Loading...

Placido Domingo - Dein ist mein ganzes Herz [Deutsche Grammophon 445 740-2 GF] {Germany 19__}

Posted By : luckburz | Date : 29 Feb 2012 05:56:55 | Comments : 7 |
|



Placido Domingo - Dein ist mein ganzes Herz
FLAC, EAC, LOG & CUE | Lossless Artwork | Size: 312 MB
Label/Cat#: Deutsche Grammophon 445 740-2 GF | Country/Year: Germany 19__
Genre: Folk, World, Tango | Hoster: Filepost/Uploaded/Filefactory

MD5 [X] CUE [X] LOG [X] INFO TEXT [X] ARTWORK [X]

webfind [] selfrip [X]






Extraction Log:

LOG:
Exact Audio Copy V1.0 beta 2 from 29. April 2011

EAC extraction logfile from 28. November 2011, 9:04

Placido Domingo / Dein ist mein ganzes Herz

Used drive : HL-DT-STDVDRAM GSA-H12L Adapter: 0 ID: 0

Read mode : Secure
Utilize accurate stream : Yes
Defeat audio cache : Yes
Make use of C2 pointers : No

Read offset correction : 667
Overread into Lead-In and Lead-Out : No
Fill up missing offset samples with silence : Yes
Delete leading and trailing silent blocks : No
Null samples used in CRC calculations : Yes
Used interface : Native Win32 interface for Win NT & 2000

Used output format : User Defined Encoder
Selected bitrate : 896 kBit/s
Quality : High
Add ID3 tag : No
Command line compressor : C:\Program Files\FLAC\flac.exe
Additional command line options : -5 -T "Artist=%artist%" -T "Title=%title%" -T "Album=%albumtitle%" -T "Date=%year%" -T "Tracknumber=%tracknr%" -T "Genre=%genre%" %source% -o %dest%


TOC of the extracted CD

Track | Start | Length | Start sector | End sector
---------------------------------------------------------
1 | 0:00.33 | 3:35.00 | 33 | 16157
2 | 3:35.33 | 3:08.00 | 16158 | 30257
3 | 6:43.33 | 2:47.00 | 30258 | 42782
4 | 9:30.33 | 3:39.25 | 42783 | 59232
5 | 13:09.58 | 3:10.25 | 59233 | 73507
6 | 16:20.08 | 3:15.25 | 73508 | 88157
7 | 19:35.33 | 3:13.00 | 88158 | 102632
8 | 22:48.33 | 3:42.00 | 102633 | 119282
9 | 26:30.33 | 3:21.00 | 119283 | 134357
10 | 29:51.33 | 3:34.50 | 134358 | 150457
11 | 33:26.08 | 3:27.00 | 150458 | 165982
12 | 36:53.08 | 3:45.00 | 165983 | 182857
13 | 40:38.08 | 3:48.50 | 182858 | 200007
14 | 44:26.58 | 3:08.50 | 200008 | 214157
15 | 47:35.33 | 3:19.50 | 214158 | 229132
16 | 50:55.08 | 3:27.25 | 229133 | 244682


Range status and errors

Selected range

Filename I:\=== VINYL RIPS ===\=== EAC===\Placido Domingo - Dein ist mein ganzes Herz.wav

Peak level 84.5 %
Extraction speed 7.6 X
Range quality 100.0 %
Test CRC A9865435
Copy CRC A9865435
Copy OK

No errors occurred


AccurateRip summary

Track 1 not present in database
Track 2 not present in database
Track 3 not present in database
Track 4 not present in database
Track 5 not present in database
Track 6 not present in database
Track 7 not present in database
Track 8 not present in database
Track 9 not present in database
Track 10 not present in database
Track 11 not present in database
Track 12 not present in database
Track 13 not present in database
Track 14 not present in database
Track 15 not present in database
Track 16 not present in database

None of the tracks are present in the AccurateRip database

End of status report

==== Log checksum 65B57EF17AE13CEBD973D4C3029A87C5AEFACAA477F89EDC51E45CD5D89610A5 ====


CD Info:

Domingo – Dein Ist Mein Ganzes Herz - Domingo Singt Love Songs & Tangos

Label: Deutsche Grammophon Favorit
Catalog#: 445 740-2 GF
Format: CD, Compilation, Remastered
Country: Germany
Released: 199?
Genre: Folk, World, & Country, Latin, Pop
Style: Tango

Tracklist:

1 Dein Ist Mein Ganzes Herz 3:32
2 Core'ngrato (Catari) 3:05
3 Ich Schenk' Dir Eine Neue Welt 2:45
4 Siboney 3:37
5 Ay, Ay, Ay 3:08
6 Marta 3:11
7 Non Ti Scordar Di Me 3:10
8 Jurame 3:38
9 Caminito 3:18
10 Nostalgias 3:31
11 Mi Buenos Aires Querido 3:24
12 El Dia Que Me Quieras 3:41
13 Uno 3:45
14 Maria 3:04
15 Alma De Bohemio 3:16
16 Cuesta Abajo 3:26

Companies etc:

Phonographic Copyright (p) – (1-8) 1976 Polydor International GmbH, Hamburg
Phonographic Copyright (p) – (9-16) 1981 Phonogram S.A.I.C., Argentina

Credits:

Arranged By – Marcel Peeters (tracks: 2+8), Karl-Heinz Loges (tracks: 1, 3-7), Roberto Pansera (tracks: 9-16)
Orchestra – London Symphony Orchestra (tracks: 1-8), Studio Orchestra (tracks: 9-16)

Barcode and Other Identifiers:

Barcode: 028944574029
Label Code: LC 0173
Rights Society: BIEM/STEMRA

Discogs Url: http://www.discogs.com/release/3295152



RAR-files checksums



If you have problems extracting the RAR files on your HD, please verify these checksums. If they do not match, redownload the not-matching part and try again.

(copy & paste to your editor and save as *.md5 in the folder where the RAR files are located)

49f3c3ba5ec5d7f63a33b6b8cb00a45d *FHQA-PlDo-DeIsMeGaHe-CD.part1.rar
98d646587dbc0c2cb96464a713fc49db *FHQA-PlDo-DeIsMeGaHe-CD.part2.rar
dcfa9dbb78fb9bdd4de98e12d029cbab *FHQA-PlDo-DeIsMeGaHe-CD.part3.rar
fa2d7cd0ec26312a8b3476bec4b01bc1 *FHQA-PlDo-DeIsMeGaHe-CD.part4.rar



Password:

finest-hq-audio

Check my blog for other lossless uploads:

http://www.avaxhome.ws/blogs/luckburz

Links:

[Filepost]

Folder

[Uploaded]

Folder

[Filefactory]

Part 2 unf. down

Folder
ADVERTISING » Click here to download Ebooks/Magazines for free « ADVERTISING


Posted By: lopez4262312 Date: 29 Feb 2012 18:54:42
For what purpose is the password required?
Posted By: ersuna Date: 29 Feb 2012 22:34:02
I would ask the same question as lopez4262312
Posted By: lakoncordia Date: 29 Feb 2012 23:05:05
lopez4262312, To extract the archive
Posted By: diegocopola Date: 01 Mar 2012 18:49:54
thanks!!!!!!!!!!!
Posted By: igres Date: 02 Mar 2012 10:48:51
Thanks a lot !!
Posted By: Borgia Date: 04 Mar 2012 03:17:09
Thank you very much!!!
Posted By: 007felix Date: 06 Mar 2012 06:18:29
Thanks!!!!!!!!