Loading...

Los Calchakis - La Flûte Indienne [Arion CD 13] {Europe 1986}

Posted By : luckburz | Date : 17 Jun 2012 08:38:35 | Comments : 4 |
|



Los Calchakis - La Flûte Indienne
EAC+LOG+CUE | FLAC: 354 MB | MP3 CBR 320: 151 MB | Full Artwork | 5% Recovery Info
Label/Cat#: Arion CD 13 | Country/Year: Europe 1986
Genre: World Music | Style: Andean Folk

MD5 [X] CUE [X] LOG [X] INFO TEXT [X] ARTWORK [X]

webfind [] selfrip [X]





EAC LOG
Exact Audio Copy V1.0 beta 2 from 29. April 2011

EAC extraction logfile from 29. January 2012, 13:01

Los Calchakis / La Flûte Indienne

Used drive : HL-DT-STDVDRAM GSA-H12L Adapter: 0 ID: 0

Read mode : Secure
Utilize accurate stream : Yes
Defeat audio cache : Yes
Make use of C2 pointers : No

Read offset correction : 667
Overread into Lead-In and Lead-Out : No
Fill up missing offset samples with silence : Yes
Delete leading and trailing silent blocks : No
Null samples used in CRC calculations : Yes
Used interface : Native Win32 interface for Win NT & 2000

Used output format : User Defined Encoder
Selected bitrate : 896 kBit/s
Quality : High
Add ID3 tag : No
Command line compressor : C:\Program Files\FLAC\flac.exe
Additional command line options : -5 -T "Artist=%artist%" -T "Title=%title%" -T "Album=%albumtitle%" -T "Date=%year%" -T "Tracknumber=%tracknr%" -T "Genre=%genre%" %source% -o %dest%


TOC of the extracted CD

Track | Start | Length | Start sector | End sector
---------------------------------------------------------
1 | 0:00.00 | 2:26.50 | 0 | 10999
2 | 2:26.50 | 3:18.00 | 11000 | 25849
3 | 5:44.50 | 3:26.25 | 25850 | 41324
4 | 9:11.00 | 2:25.50 | 41325 | 52249
5 | 11:36.50 | 3:35.25 | 52250 | 68399
6 | 15:12.00 | 2:11.00 | 68400 | 78224
7 | 17:23.00 | 2:58.35 | 78225 | 91609
8 | 20:21.35 | 3:07.65 | 91610 | 105699
9 | 23:29.25 | 2:14.50 | 105700 | 115799
10 | 25:44.00 | 2:18.00 | 115800 | 126149
11 | 28:02.00 | 2:30.27 | 126150 | 137426
12 | 30:32.27 | 3:21.00 | 137427 | 152501
13 | 33:53.27 | 2:39.23 | 152502 | 164449
14 | 36:32.50 | 2:40.52 | 164450 | 176501
15 | 39:13.27 | 2:51.00 | 176502 | 189326
16 | 42:04.27 | 3:40.00 | 189327 | 205826
17 | 45:44.27 | 2:52.00 | 205827 | 218726
18 | 48:36.27 | 2:27.48 | 218727 | 229799
19 | 51:04.00 | 3:25.50 | 229800 | 245224
20 | 54:29.50 | 3:21.00 | 245225 | 260299
21 | 57:50.50 | 3:02.25 | 260300 | 273974


Range status and errors

Selected range

Filename I:\=== VINYL RIPS ===\=== EAC===\X FRESH RIP\Los Calchakis - La Flûte Indienne.wav

Peak level 87.4 %
Extraction speed 7.9 X
Range quality 99.9 %
Test CRC 204758AB
Copy CRC 204758AB
Copy OK

No errors occurred


AccurateRip summary

Track 1 accurately ripped (confidence 1) [778586CF] (AR v1)
Track 2 accurately ripped (confidence 1) [AA770520] (AR v1)
Track 3 accurately ripped (confidence 1) [1C785D6C] (AR v1)
Track 4 accurately ripped (confidence 1) [C499D5BE] (AR v1)
Track 5 accurately ripped (confidence 1) [74D35679] (AR v1)
Track 6 accurately ripped (confidence 1) [2B21EF11] (AR v1)
Track 7 accurately ripped (confidence 1) [25B48C5C] (AR v1)
Track 8 accurately ripped (confidence 1) [C7BB79B9] (AR v1)
Track 9 accurately ripped (confidence 1) [8A03073A] (AR v1)
Track 10 accurately ripped (confidence 1) [EDE2AF93] (AR v1)
Track 11 accurately ripped (confidence 1) [5DE80671] (AR v1)
Track 12 accurately ripped (confidence 1) [E3FFE980] (AR v1)
Track 13 accurately ripped (confidence 1) [AB5BD31F] (AR v1)
Track 14 accurately ripped (confidence 1) [4E78DA5E] (AR v1)
Track 15 accurately ripped (confidence 1) [DBB58C49] (AR v1)
Track 16 accurately ripped (confidence 1) [9E176A71] (AR v1)
Track 17 accurately ripped (confidence 1) [101404DE] (AR v1)
Track 18 accurately ripped (confidence 1) [7E2183BE] (AR v1)
Track 19 accurately ripped (confidence 1) [4EB7044B] (AR v1)
Track 20 accurately ripped (confidence 1) [FF7A03F7] (AR v1)
Track 21 accurately ripped (confidence 1) [74D3F989] (AR v1)

All tracks accurately ripped

End of status report

==== Log checksum 1E060AD49149F464B982B23419BD1D148AADD09E171C118064E9EEB66FD98578 ====


Dynamic Range LOG
foobar2000 1.1.7 / Dynamic Range Meter 1.1.1
log date: 2012-04-24 19:32:40

--------------------------------------------------------------------------------
Analyzed: Los Calchakis / La Flûte Indienne
--------------------------------------------------------------------------------

DR Peak RMS Duration Track
--------------------------------------------------------------------------------
DR11 -1.64 dB -15.99 dB 2:27 01-Linda Cambita (Bolivia)
DR13 -1.50 dB -19.22 dB 3:18 02-El Condor Pasa (Peru)
DR13 -2.75 dB -19.45 dB 3:26 03-Isla Saca (Paraguay)
DR13 -1.16 dB -17.25 dB 2:26 04-Dos Carnavalitos (Argentina)
DR10 -4.94 dB -19.19 dB 3:35 05-Virgenes Del Sol (Peru)
DR11 -3.19 dB -16.67 dB 2:11 06-La Cocinerita (Argentina)
DR13 -4.07 dB -20.38 dB 2:58 07-El Pilon (Venezuela)
DR11 -1.45 dB -17.15 dB 3:08 08-Mariposa Morena (Bolivia)
DR9 -6.59 dB -18.69 dB 2:15 09-Misterio De Los Andes (Peru)
DR11 -6.53 dB -20.10 dB 2:18 10-El Toro Rabon (Mexico)
DR11 -6.02 dB -20.10 dB 2:30 11-Chuqui (Ecuador)
DR11 -2.42 dB -18.13 dB 3:21 12-El Vuelo Del Condor (Peru)
DR13 -1.73 dB -18.00 dB 2:39 13-Madrecita (Paraguay)
DR12 -4.97 dB -20.70 dB 2:41 14-Rondador (Ecuador)
DR13 -4.73 dB -20.60 dB 2:51 15-Carnaval De Humbahuaca (Argentina)
DR11 -3.72 dB -17.85 dB 3:40 16-Diablo Bailarin (Bolivia)
DR12 -2.85 dB -17.67 dB 2:52 17-Lejos De Mitierra (Argentina)
DR10 -4.29 dB -17.87 dB 2:28 18-Joropeando (Venezuela)
DR12 -3.91 dB -20.65 dB 3:26 19-Sta Maria De Iquique (Chile)
DR12 -2.38 dB -17.72 dB 3:21 20-Torito Mata (Peru)
DR12 -3.01 dB -18.64 dB 3:02 21-Sol Fecundo (Chile)
--------------------------------------------------------------------------------

Number of tracks: 21
Official DR value: DR12

Samplerate: 44100 Hz
Channels: 2
Bits per sample: 16
Bitrate: 655 kbps
Codec: FLAC
================================================================================



CD Info:

Los Calchakis - La Flute Indienne

Label: Arion
Catalog#: CD 13
Format: CD, Compilation
Country: Europe
Released: 1986
Genre: Folk, World
Style: Andean

Tracklist:

1 Linda Cambita
2 El Condor Pasa
3 Isla Saca
4 Dos Carnavalitos
5 Virgenes Del Sol
6 La Concinerita
7 El Pilon
8 Mariposa Morena
9 Misterio De Los Andes
10 El Toro Rabon
11 Chuqui
12 El Vuelo Del Condor
13 Madrecita
14 Rondador
15 Carnaval De Humahuaca
16 Diablo Bailarin
17 Lejos De Mi Tierra
18 Joropeando
19 Sta. Maria Deiquique
20 Torito Mata
21 Sol Fecundo




Biography

by Craig Harris

Performing on 19 instruments, Los Calchakis has expanded on the Spanish-Incan musical traditions of the Andes Mountains. Led by lyricist, vocalist, flute, and percussion player Hector Miranda, the Buenos Aires-based quintet has been one of Argentina's most heralded bands. The group received a prestigious award from the Academy Charles Cros in 1971 and performed the Mikis Theodorakis-penned soundtrack of Costa-Gravas' film State of Seige. Although they remain rooted in traditional music, Los Calchakis focuses almost exclusively on original material. Their lengthy list of hits include such tunes as "Eldorado," "Mundo Nuevo," "Hombre Libre," and "Puerto de Palos." allmusicguide




// all of my uploads //

NOTICE!: The FLAC version has the artwork integrated, no need to load it extra. Only MP3 downloaders will have download the artwork extra!

Password:

finest-hq-audio

ADVERTISING » Very Fast Download! « ADVERTISING


Posted By: MARomero Date: 17 Jun 2012 19:38:21
Thanks a lot for this one!...
Posted By: schokuhfar Date: 19 Jun 2012 06:56:31
wie immer schön. Vielen Dank.
Posted By: Igone Date: 28 Aug 2012 00:34:34
Thank you very much !
Posted By: Antipop Date: 10 Mar 2013 16:34:04
Thanks for sharing.