Loading...

Chico Buarque - Chico Buarque (1978)

Posted By : tiburon | Date : 08 Mar 2012 12:29:55 | Comments : 7 |
|



Chico Buarque - Chico Buarque (1978)
EAC 0.99pb5 | FLAC tracks level 5| Cue+Log+M3U | Scans 300dpi | 220MB + 5% Recovery
Genre: World, Brazil, Samba

Perhaps the most famous song on this album is "Cálice," the classic protest song written by Chico Buarque and Gilberto Gil, on which Buarque is accompanied by Milton Nascimento on vocals. Although very beautiful, "Cálice," with its mildly rock-oriented sound, isn't really representative for the rest of the album, whose sound is more traditional.

Track List
01. Feijoada Completa
02. Cálice
03. Trocando em Miúdos
04. O Meu Amor
05. Homenagem ao Malandro
06. Até o Fim
07. Pedaço de Mim
08. Pivete
09. Pequeña Serenata Diurna
10. Tanto Mar
11. Apesar de Você

Produced by Sergio De Carvalho

EAC Logfile

Exact Audio Copy V0.99 prebeta 5 from 4. May 2009

EAC extraction logfile from 7. December 2010, 3:15

Chico Buarque / Chico Buarque

Used drive : TSSTcorpCDDVDW TS-H653N Adapter: 2 ID: 2

Read mode : Secure
Utilize accurate stream : Yes
Defeat audio cache : Yes
Make use of C2 pointers : No

Read offset correction : 6
Overread into Lead-In and Lead-Out : No
Fill up missing offset samples with silence : Yes
Delete leading and trailing silent blocks : No
Null samples used in CRC calculations : Yes
Used interface : Native Win32 interface for Win NT & 2000
Gap handling : Appended to previous track

Used output format : User Defined Encoder
Selected bitrate : 1024 kBit/s
Quality : High
Add ID3 tag : No
Command line compressor : C:\Program Files\FLAC -\flac.exe
Additional command line options : -5 -V -T "artist=%a" -T "title=%t" -T "album=%g" -T "date=%y" -T "tracknumber=%n" -T "genre=%m" -T comment="shared by pastafari cubensis" %s


TOC of the extracted CD

Track | Start | Length | Start sector | End sector
---------------------------------------------------------
1 | 0:00.00 | 2:51.19 | 0 | 12843
2 | 2:51.19 | 4:01.65 | 12844 | 30983
3 | 6:53.09 | 2:52.12 | 30984 | 43895
4 | 9:45.21 | 4:03.03 | 43896 | 62123
5 | 13:48.24 | 3:00.52 | 62124 | 75675
6 | 16:49.01 | 2:24.28 | 75676 | 86503
7 | 19:13.29 | 3:17.22 | 86504 | 101300
8 | 22:30.51 | 2:28.53 | 101301 | 112453
9 | 24:59.29 | 2:22.42 | 112454 | 123145
10 | 27:21.71 | 1:54.68 | 123146 | 131763
11 | 29:16.64 | 3:55.41 | 131764 | 149429


Track 1

Filename C:\pastafari\Chico Buarque - 1978 - Chico Buarque [FLAC]\01 - Feijoada Completa.wav

Pre-gap length 0:00:02.00

Peak level 98.3 %
Track quality 100.0 %
Test CRC 5A1A6452
Copy CRC 5A1A6452
Copy OK

Track 2

Filename C:\pastafari\Chico Buarque - 1978 - Chico Buarque [FLAC]\02 - Cбlice.wav

Peak level 97.8 %
Track quality 100.0 %
Test CRC 74BD9310
Copy CRC 74BD9310
Copy OK

Track 3

Filename C:\pastafari\Chico Buarque - 1978 - Chico Buarque [FLAC]\03 - Trocando em Miъdos.wav

Peak level 96.0 %
Track quality 100.0 %
Test CRC FC3DEEF0
Copy CRC FC3DEEF0
Copy OK

Track 4

Filename C:\pastafari\Chico Buarque - 1978 - Chico Buarque [FLAC]\04 - O Meu Amor.wav

Peak level 97.8 %
Track quality 100.0 %
Test CRC 64E1BAD6
Copy CRC 64E1BAD6
Copy OK

Track 5

Filename C:\pastafari\Chico Buarque - 1978 - Chico Buarque [FLAC]\05 - Homenagem ao Malandro.wav

Peak level 98.4 %
Track quality 100.0 %
Test CRC B20F9991
Copy CRC B20F9991
Copy OK

Track 6

Filename C:\pastafari\Chico Buarque - 1978 - Chico Buarque [FLAC]\06 - Atй o Fim.wav

Peak level 100.0 %
Track quality 100.0 %
Test CRC FE661B16
Copy CRC FE661B16
Copy OK

Track 7

Filename C:\pastafari\Chico Buarque - 1978 - Chico Buarque [FLAC]\07 - Pedaзo de Mim.wav

Peak level 97.8 %
Track quality 100.0 %
Test CRC 8DC64A47
Copy CRC 8DC64A47
Copy OK

Track 8

Filename C:\pastafari\Chico Buarque - 1978 - Chico Buarque [FLAC]\08 - Pivete.wav

Peak level 97.8 %
Track quality 100.0 %
Test CRC D11B9986
Copy CRC D11B9986
Copy OK

Track 9

Filename C:\pastafari\Chico Buarque - 1978 - Chico Buarque [FLAC]\09 - Pequeсa Serenata Diurna.wav

Peak level 97.0 %
Track quality 100.0 %
Test CRC 8FF54BD1
Copy CRC 8FF54BD1
Copy OK

Track 10

Filename C:\pastafari\Chico Buarque - 1978 - Chico Buarque [FLAC]\10 - Tanto Mar.wav

Peak level 98.2 %
Track quality 99.9 %
Test CRC 6A55C664
Copy CRC 6A55C664
Copy OK

Track 11

Filename C:\pastafari\Chico Buarque - 1978 - Chico Buarque [FLAC]\11 - Apesar de Vocк.wav

Peak level 97.5 %
Track quality 100.0 %
Test CRC A26931DA
Copy CRC A26931DA
Copy OK

No errors occurred

End of status report

Dynamic Range Analysis

--------------------------------------------------------------------------------
Analyzed: Chico Buarque / Chico Buarque
--------------------------------------------------------------------------------

DR Peak RMS Duration Track
--------------------------------------------------------------------------------
DR9 -0.15 dB -10.42 dB 2:51 01-Feijoada Completa
DR9 -0.19 dB -11.49 dB 4:02 02-Cálice
DR10 -0.35 dB -13.00 dB 2:52 03-Trocando em Miúdos
DR9 -0.19 dB -10.44 dB 4:03 04-O Meu Amor
DR9 -0.14 dB -10.33 dB 3:01 05-Homenagem ao Malandro
DR9 0.00 dB -10.29 dB 2:24 06-Até o Fim
DR9 -0.19 dB -11.97 dB 3:17 07-Pedaço de Mim
DR9 -0.19 dB -10.57 dB 2:29 08-Pivete
DR9 -0.26 dB -11.29 dB 2:23 09-Pequeña Serenata Diurna
DR8 -0.16 dB -10.29 dB 1:55 10-Tanto Mar
DR8 -0.21 dB -10.24 dB 3:56 11-Apesar de Você
--------------------------------------------------------------------------------

Number of tracks: 11
Official DR value: DR9

Samplerate: 44100 Hz
Channels: 2
Bits per sample: 16
Bitrate: 994 kbps
Codec: FLAC
================================================================================



Rip by Pastafari Cubensis



The Files Are Interchangeable
ADVERTISING » Free Fast Download! « ADVERTISING


Posted By: Atreides Date: 08 Mar 2012 14:30:08
Gracias tiburon!!!!!!! Chico Buarque es fantástico!!!!!!
Posted By: cmsv Date: 08 Mar 2012 14:53:56
Muito obrigado! Este album é um clássico da mpb.
Posted By: gioma Date: 08 Mar 2012 17:18:20
There is no much Chico Buarque available and this album is my favorite.
Many thanks for sharing
Posted By: diegocopola Date: 09 Mar 2012 20:44:53
gracias!!!!!!!!!!!!!!!!
Posted By: PapaDoc Date: 11 Mar 2012 19:41:23
Really great upload thanks tiburon that's a wonder
Posted By: tissogc Date: 06 Nov 2012 21:07:16
Thank you very much!
Posted By: dakunha Date: 13 Jun 2013 14:03:06
O meu muito OBRIGADO!
Deus Lhe Pague!!!