Loading...

Elliott Murphy - Elliott Murphy (2010)

Posted By : MrMushroom16 | Date : 30 Jun 2011 18:02:43 | Comments : 1 |
|



Elliott Murphy - Elliott Murphy (2010)
Folk, Rock | FLAC(tracks)+CUE+LOG | Last Call Records | Lossless | 40:08 | 322 MB | Full artwork

Elliott Murphy's new album, although musically rich and lyrically intense, has a very simple title - Elliott Murphy - and begins a new cycle in the Murphy career and legend as it was produced by none other then Elliott's 20 year-old son Gaspard Murphy. Once again featuring virtuoso guitarist Olivier Durand and The Normandy All Stars, the album was recorded in Le Havre, New York City, and Paris with guests Kenny Margolis on keyboards (Willy DeVille) and backing vocals by Laura Mayne (Native), Alain Chenneviere (Pow Wow) and Lisa Lowell (Bruce Springsteen). 11 Unforgettable songs like "Poise 'n Grace" and "Rock 'n Roll 'n Rock 'n Roll." A classic in the works!

Tracks:
01 Poise'n Grace
02 Maybe You Were Laughing
03 Counterclockwise
04 Rock'n Roll 'n Rock 'n Roll
05 Gone, Gone, Gone
06 You Don't Need to Be More Than Yourself
07 With This Ring
08 Take That Devil Out of Me
09 The Day After You
10 Rain, Rain, Rain
11 Train Kept A Rolling

EAC log
Exact Audio Copy V1.0 beta 1 from 15. November 2010

EAC extraction logfile from 28. June 2011, 19:36

Elliott Murphy / Elliott Murphy

Used drive : HL-DT-STDVDRAM GH60N Adapter: 2 ID: 1

Read mode : Secure
Utilize accurate stream : Yes
Defeat audio cache : Yes
Make use of C2 pointers : No

Read offset correction : 667
Overread into Lead-In and Lead-Out : No
Fill up missing offset samples with silence : Yes
Delete leading and trailing silent blocks : No
Null samples used in CRC calculations : Yes
Used interface : Native Win32 interface for Win NT & 2000
Gap handling : Appended to previous track

Used output format : User Defined Encoder
Selected bitrate : 768 kBit/s
Quality : High
Add ID3 tag : No
Command line compressor : C:\Program Files (x86)\Exact Audio Copy\FLAC\FLAC.EXE
Additional command line options : -6 -V -T "ARTIST=%a" -T "TITLE=%t" -T "ALBUM=%g" -T "DATE=%y" -T "TRACKNUMBER=%n" -T "GENRE=%m" -T "COMMENT=%e" %j--picture="%i"%j %s -o %d


TOC of the extracted CD

Track | Start | Length | Start sector | End sector
---------------------------------------------------------
1 | 0:00.00 | 4:34.54 | 0 | 20603
2 | 4:34.54 | 3:32.23 | 20604 | 36526
3 | 8:07.02 | 3:15.34 | 36527 | 51185
4 | 11:22.36 | 3:30.13 | 51186 | 66948
5 | 14:52.49 | 3:41.41 | 66949 | 83564
6 | 18:34.15 | 4:32.56 | 83565 | 104020
7 | 23:06.71 | 3:50.17 | 104021 | 121287
8 | 26:57.13 | 3:12.65 | 121288 | 135752
9 | 30:10.03 | 4:27.17 | 135753 | 155794
10 | 34:37.20 | 3:17.67 | 155795 | 170636
11 | 37:55.12 | 6:18.51 | 170637 | 199037


Track 1

Filename A:\music\Elliott Murphy - Elliott Murphy\01 - Poise 'n Grace.wav

Pre-gap length 0:00:02.00

Peak level 100.0 %
Extraction speed 1.0 X
Track quality 100.0 %
Test CRC F2379D25
Copy CRC F2379D25
Cannot be verified as accurate (confidence 1) [94EBAA1B], AccurateRip returned [415B0341]
Copy OK

Track 2

Filename A:\music\Elliott Murphy - Elliott Murphy\02 - Maybe You Were Laughing.wav

Pre-gap length 0:00:01.34

Peak level 100.0 %
Extraction speed 1.1 X
Track quality 100.0 %
Test CRC FA165EF4
Copy CRC FA165EF4
Cannot be verified as accurate (confidence 1) [6EB5B04D], AccurateRip returned [6BC5EDCB]
Copy OK

Track 3

Filename A:\music\Elliott Murphy - Elliott Murphy\03 - Counterclockwise.wav

Pre-gap length 0:00:00.73

Peak level 100.0 %
Extraction speed 1.2 X
Track quality 100.0 %
Test CRC A2615F5B
Copy CRC A2615F5B
Cannot be verified as accurate (confidence 1) [115AFCA5], AccurateRip returned [9D9E97B3]
Copy OK

Track 4

Filename A:\music\Elliott Murphy - Elliott Murphy\04 - Rock 'n Roll, Rock 'n Roll, Rock 'n Roll.wav

Pre-gap length 0:00:01.58

Peak level 100.0 %
Extraction speed 1.1 X
Track quality 99.9 %
Test CRC CAD4ABFA
Copy CRC CAD4ABFA
Cannot be verified as accurate (confidence 1) [EA4E7757], AccurateRip returned [7B956B5D]
Copy OK

Track 5

Filename A:\music\Elliott Murphy - Elliott Murphy\05 - Gone, Gone, Gone.wav

Pre-gap length 0:00:01.04

Peak level 100.0 %
Extraction speed 1.4 X
Track quality 100.0 %
Test CRC 9DE6ED36
Copy CRC 9DE6ED36
Cannot be verified as accurate (confidence 1) [0A44ABBD], AccurateRip returned [A2658989]
Copy OK

Track 6

Filename A:\music\Elliott Murphy - Elliott Murphy\06 - You Don't Need To Be More Than Yourself.wav

Pre-gap length 0:00:01.46

Peak level 100.0 %
Extraction speed 1.5 X
Track quality 100.0 %
Test CRC 5B4825FE
Copy CRC 5B4825FE
Cannot be verified as accurate (confidence 1) [696DB621], AccurateRip returned [B753360B]
Copy OK

Track 7

Filename A:\music\Elliott Murphy - Elliott Murphy\07 - With This Ring.wav

Pre-gap length 0:00:01.10

Peak level 100.0 %
Extraction speed 1.6 X
Track quality 100.0 %
Test CRC 335C83C0
Copy CRC 335C83C0
Cannot be verified as accurate (confidence 1) [5E66FB9E], AccurateRip returned [EF633112]
Copy OK

Track 8

Filename A:\music\Elliott Murphy - Elliott Murphy\08 - Take That Devil Out Of Me.wav

Peak level 100.0 %
Extraction speed 1.5 X
Track quality 100.0 %
Test CRC 99C50FEB
Copy CRC 99C50FEB
Cannot be verified as accurate (confidence 1) [CFF6A9B1], AccurateRip returned [4B275D75]
Copy OK

Track 9

Filename A:\music\Elliott Murphy - Elliott Murphy\09 - The Day After You.wav

Pre-gap length 0:00:01.22

Peak level 100.0 %
Extraction speed 1.7 X
Track quality 100.0 %
Test CRC 1A57FC6F
Copy CRC 1A57FC6F
Cannot be verified as accurate (confidence 1) [3D7EBB8B], AccurateRip returned [DF10D169]
Copy OK

Track 10

Filename A:\music\Elliott Murphy - Elliott Murphy\10 - Rain, Rain, Rain.wav

Pre-gap length 0:00:00.73

Peak level 100.0 %
Extraction speed 1.4 X
Track quality 99.9 %
Test CRC 2631D7F1
Copy CRC 2631D7F1
Cannot be verified as accurate (confidence 1) [7F029382], AccurateRip returned [1772E324]
Copy OK

Track 11

Filename A:\music\Elliott Murphy - Elliott Murphy\11 - Train Kept A Rolling.wav

Pre-gap length 0:00:01.13

Peak level 100.0 %
Extraction speed 2.0 X
Track quality 100.0 %
Test CRC DCA59DDD
Copy CRC DCA59DDD
Cannot be verified as accurate (confidence 1) [FFB2EE3B], AccurateRip returned [5D81B779]
Copy OK


No tracks could be verified as accurate
You may have a different pressing from the one(s) in the database

No errors occurred

End of status report

==== Log checksum E7E978FE29EF66A5C458677572A79BF287BE0CA744C7AC46DF324DB8E7A28CFE ====



Filesonic links
FS1
FS2
password : MrMushroom


No mirrors according to the rules

ADVERTISING » Free Fast Download! « ADVERTISING


Posted By: neutronsix Date: 01 Jul 2011 15:26:05
Thank you for this honest and respectable artist in lossless format.