Loading...

Anthology of Byzantine Secular Music, by Christodoulos Halaris

Posted By : wdilbert | Date : 02 Nov 2012 03:49:34 | Comments : 14 |
|



Anthology of Byzantine Secular Music, by Christodoulos Halaris
EAC | FLAC IMG+CUE+LOG | Complete HQ Scans | 1CD + 1CD | 374 MB + 369 MB
Classical, Folk, Traditional | Orata ORAANT 001 & ORAANT 002 | 1993?


Sometimes billed as "Chris Hallaris," Greek composer and scholar Christodoulos Halaris is a leading expert on the study and reconstruction of ancient Greek and Byzantine music. He turned to musicology and composing after studying mathematics in Paris. Taking his cues from religious iconography and traditional popular Greek music, Halaris began reconstructing fragmentary (and sometimes nonexistent) old Greek music documents. His re-imagining of secular Byzantine music, with what Halaris identifies as roots in Hellenic song, has met with skepticism from some scholars, but it is based on a serious study of a number of sources and centuries of related developments in Greek music. He has published more than 50 compact discs of this music, and helped create the Museum of Thessalonica, devoted to Greek music. He was also involved in a significant project revolving around European medieval music.
James Reel (allmusic.com)

EAC Log Vol. I
Exact Audio Copy V1.0 beta 3 from 29. August 2011

EAC extraction logfile from 1. November 2012, 17:48

Christodoulos Halaris / Anthology of Byzantine Secular Music

Used drive : ATAPI iHAS624 B Adapter: 0 ID: 0

Read mode : Secure
Utilize accurate stream : Yes
Defeat audio cache : No
Make use of C2 pointers : No

Read offset correction : 6
Overread into Lead-In and Lead-Out : No
Fill up missing offset samples with silence : Yes
Delete leading and trailing silent blocks : No
Null samples used in CRC calculations : Yes
Used interface : Native Win32 interface for Win NT & 2000

Used output format : User Defined Encoder
Selected bitrate : 768 kBit/s
Quality : High
Add ID3 tag : No
Command line compressor : C:\Program Files (x86)\Exact Audio Copy\FLAC\FLAC.EXE
Additional command line options : -8 -V -T "ARTIST=%artist%" -T "TITLE=%title%" -T "ALBUM=%albumtitle%" -T "DATE=%year%" -T "TRACKNUMBER=%tracknr%" -T "GENRE=%genre%" -T "COMMENT=%comment%" -T "BAND=%albuminterpret%" -T "ALBUMARTIST=%albuminterpret%" -T "COMPOSER=%composer%" %haslyrics%--tag-from-file=LYRICS="%lyricsfile%"%haslyrics% -T "DISCNUMBER=%cdnumber%" -T "TOTALDISCS=%totalcds%" -T "TOTALTRACKS=%numtracks%" %hascover%--picture="%coverfile%"%hascover% %source% -o %dest%


TOC of the extracted CD

Track | Start | Length | Start sector | End sector
---------------------------------------------------------
1 | 0:00.00 | 10:28.35 | 0 | 47134
2 | 10:28.35 | 11:23.73 | 47135 | 98432
3 | 21:52.33 | 11:04.67 | 98433 | 148299
4 | 32:57.25 | 5:04.68 | 148300 | 171167
5 | 38:02.18 | 5:37.72 | 171168 | 196514
6 | 43:40.15 | 7:53.68 | 196515 | 232057
7 | 51:34.08 | 6:12.72 | 232058 | 260029
8 | 57:47.05 | 4:59.48 | 260030 | 282502


Range status and errors

Selected range

Filename D:\EAC\Christodoulos Halaris - Anthology of Byzantine Secular Music.wav

Peak level 94.9 %
Extraction speed 13.8 X
Range quality 100.0 %
Copy CRC 48FB77F6
Copy OK

No errors occurred


AccurateRip summary

Track 1 not present in database
Track 2 not present in database
Track 3 not present in database
Track 4 not present in database
Track 5 not present in database
Track 6 not present in database
Track 7 not present in database
Track 8 not present in database

None of the tracks are present in the AccurateRip database

End of status report

---- CUETools DB Plugin V2.1.3

[CTDB TOCID: CLWVGEXteVWlA9HNO2kh8sYEgAc-] found, Submit result: CLWVGEXteVWlA9HNO2kh8sYEgAc- has been confirmed
[d65275c5] (2/2) Accurately ripped


==== Log checksum 67B20F2F54A09AAD1E149E495AD689E0DA1E8C6FBCB8AB606338E07D6B2A54CD ====

EAC Log Vol. II
Exact Audio Copy V1.0 beta 3 from 29. August 2011

EAC extraction logfile from 1. November 2012, 18:37

Christodoulos Halaris / Anthology of Byzantine Secular Music, Vol. II

Used drive : ATAPI iHAS624 B Adapter: 0 ID: 0

Read mode : Secure
Utilize accurate stream : Yes
Defeat audio cache : No
Make use of C2 pointers : No

Read offset correction : 6
Overread into Lead-In and Lead-Out : No
Fill up missing offset samples with silence : Yes
Delete leading and trailing silent blocks : No
Null samples used in CRC calculations : Yes
Used interface : Native Win32 interface for Win NT & 2000

Used output format : User Defined Encoder
Selected bitrate : 768 kBit/s
Quality : High
Add ID3 tag : No
Command line compressor : C:\Program Files (x86)\Exact Audio Copy\FLAC\FLAC.EXE
Additional command line options : -8 -V -T "ARTIST=%artist%" -T "TITLE=%title%" -T "ALBUM=%albumtitle%" -T "DATE=%year%" -T "TRACKNUMBER=%tracknr%" -T "GENRE=%genre%" -T "COMMENT=%comment%" -T "BAND=%albuminterpret%" -T "ALBUMARTIST=%albuminterpret%" -T "COMPOSER=%composer%" %haslyrics%--tag-from-file=LYRICS="%lyricsfile%"%haslyrics% -T "DISCNUMBER=%cdnumber%" -T "TOTALDISCS=%totalcds%" -T "TOTALTRACKS=%numtracks%" %hascover%--picture="%coverfile%"%hascover% %source% -o %dest%


TOC of the extracted CD

Track | Start | Length | Start sector | End sector
---------------------------------------------------------
1 | 0:00.00 | 7:51.20 | 0 | 35344
2 | 7:51.20 | 3:09.40 | 35345 | 49559
3 | 11:00.60 | 5:19.65 | 49560 | 73549
4 | 16:20.50 | 7:41.23 | 73550 | 108147
5 | 24:01.73 | 8:48.25 | 108148 | 147772
6 | 32:50.23 | 2:11.55 | 147773 | 157652
7 | 35:02.03 | 8:47.20 | 157653 | 197197
8 | 43:49.23 | 4:39.67 | 197198 | 218189
9 | 48:29.15 | 5:25.53 | 218190 | 242617
10 | 53:54.68 | 6:57.10 | 242618 | 273902


Range status and errors

Selected range

Filename D:\EAC\Christodoulos Halaris - Anthology of Byzantine Secular Music, Vol. II.wav

Peak level 94.7 %
Extraction speed 9.2 X
Range quality 100.0 %
Test CRC D232E71F
Copy CRC D232E71F
Copy OK

No errors occurred


AccurateRip summary

Track 1 not present in database
Track 2 not present in database
Track 3 not present in database
Track 4 not present in database
Track 5 not present in database
Track 6 not present in database
Track 7 not present in database
Track 8 not present in database
Track 9 not present in database
Track 10 not present in database

None of the tracks are present in the AccurateRip database

End of status report

---- CUETools DB Plugin V2.1.3

[CTDB TOCID: pMri6YNuDltKMihOlWN0osaOU4c-] disk not present in database, Submit result: pMri6YNuDltKMihOlWN0osaOU4c- has been uploaded


==== Log checksum 9E303C91C44D27A77119FC676B6EDFA51D0B03F9D4DF0748F986A1DE24E8B7ED ====



_TRACKS_

Volume I
1. Work by Chryssafis, 'the lampadarios': Pleasant, sweet, instrumental and pagan
2. By Gazis Lampadarios
3. The so-called Tataric kratima
4. Sympotic song "Wild bird become tame"
5. "Organikon, Sourouliston, papadikon" by Master Ioannis Glykys
6. I hoped and still hope (post-byzantine secular song)
7. By the same composer (Nikiforos Ithikos) the so-called "Military"
8. A border guard was building a castle

Volume II
1. On the grass of a meadow
2. Kalamotoutsikos
3. Who is brave and fast?
4. A work by the same Master Lambadarios (Chrysafs), 3rd mode
5. The wall of Semiramis
6. Epitaph of Sikelos
7. When Constantine was wandering abroad as a beggar
8. After the wedding ceremony at home (nuptial song of Cyprus)
9. Do you want to hear crying?
10. "The Wheel" by Master Ioannis Koukouzelis




_DOWNLOAD_

ADVERTISING » Free Fast Download! « ADVERTISING


Posted By: Apodimi Date: 02 Nov 2012 08:34:30
Fantastic post mate......much appreciated...thanks a million.
Posted By: chubbywizard Date: 02 Nov 2012 14:02:19
wonderful..

really appreciated..great music

waiting for vol 3 :D
Posted By: melro Date: 02 Nov 2012 16:31:36
thx, great share!
Posted By: Grothendieck Date: 02 Nov 2012 16:41:48
Thank you very much for this excellent Work!
Posted By: explorerproone Date: 03 Nov 2012 07:02:25
We are sorry, the server where this file is located is currently unavailable, but should be recovered soon. Please try to download this file later.
Posted By: Narayan23 Date: 03 Nov 2012 16:40:44
Thanks a lot.
Posted By: libra_winmx Date: 05 Nov 2012 11:20:47
THANKS A LOT, wdilbert!
Gracias,

libra, from Brazil, Rio de Janeiro
Posted By: kling Date: 07 Jan 2013 22:12:58
Many, many thanks.
Posted By: will parker Date: 12 Jan 2013 06:46:28
Thanks for posting.
Posted By: Antipop Date: 16 Jan 2013 16:37:08
Thanks for the upload and for a great choice of alternative file hosters.
Posted By: dupain1 Date: 02 Mar 2013 17:08:41
thank you very much
Posted By: ChiosFat Date: 18 Mar 2013 10:34:45
Ευχαριστώ πολύ.
Posted By: đorđe Date: 23 Mar 2013 21:58:02
Thank you, wdilbert!
Posted By: alsoel Date: 24 Sep 2013 15:28:45
Muchas Gracias!!! ... Thank you very much.