Loading...

Alkistis Protopsalti - At the most beautiful point (2007)

Posted By : Speedyclick | Date : 18 Sep 2011 00:14:19 | Comments : 2 |
|



Alkistis Protopsalti - At the most beautiful point (2007)
EAC Rip | FLAC (image & cue & log) & mp3 @ 320 kbps | tracks: 12 | ~ 313 Mb & 107 Mb | 44:46 | Scans
Label: Heaven | 5% recovery record | Genre: Ballads

Another delightful personal album of the great singer Alkistis Protopsalti. Rythmic and melodic modern ballads that convey the joyful, yet relaxing, energy created by Alkistis from the very first notes. Enjoy.

TRACKLIST
01. There is a distant light (Iparhi ena fos makria)
02. One day of joy (Mia mera hara)
03. Immense void (Aperanto keno)
04. Last time (Teleftea fora)
05. Come for a while (Ela gia ligo)
06. The bodies (Ta kormia)
07. The earth without you (I gi horis esena)
08. Heaven can wait (O paradisos mpori na perimeni)
09. Let's go Hawaii (Pame Havai)
10. At the most beautiful point (Sto oreotero simio)
11. Reverse turns (Anapodes strofes)
12. In a world that does nothing for us (S' enan kosmo pou den kani kati gia mas)

EAC log
Exact Audio Copy V1.0 beta 1 from 15. November 2010

EAC extraction logfile from 21. August 2011, 12:59

Alkistis Protopsalti / Sto Wraiotero simeio

Used drive : HL-DT-STDVDRAM GH10N Adapter: 3 ID: 0

Read mode : Secure
Utilize accurate stream : Yes
Defeat audio cache : Yes
Make use of C2 pointers : No

Read offset correction : 667
Overread into Lead-In and Lead-Out : No
Fill up missing offset samples with silence : Yes
Delete leading and trailing silent blocks : No
Null samples used in CRC calculations : Yes
Used interface : Native Win32 interface for Win NT & 2000

Used output format : User Defined Encoder
Selected bitrate : 1024 kBit/s
Quality : High
Add ID3 tag : No
Command line compressor : C:\Program Files\FLAC\flac.exe
Additional command line options : -V -5 -T "artist=%a" -T "title=%t" -T "album=%g" -T "date=%y" -T "tracknumber=%n" -T "genre=%m" -5 %s


TOC of the extracted CD

Track | Start | Length | Start sector | End sector
---------------------------------------------------------
1 | 0:00.00 | 4:13.48 | 0 | 19022
2 | 4:13.48 | 3:29.17 | 19023 | 34714
3 | 7:42.65 | 3:51.40 | 34715 | 52079
4 | 11:34.30 | 3:05.29 | 52080 | 65983
5 | 14:39.59 | 3:39.09 | 65984 | 82417
6 | 18:18.68 | 3:30.37 | 82418 | 98204
7 | 21:49.30 | 3:40.41 | 98205 | 114745
8 | 25:29.71 | 4:05.21 | 114746 | 133141
9 | 29:35.17 | 4:11.07 | 133142 | 151973
10 | 33:46.24 | 3:43.17 | 151974 | 168715
11 | 37:29.41 | 3:19.59 | 168716 | 183699
12 | 40:49.25 | 3:57.12 | 183700 | 201486


Range status and errors

Selected range

Filename U:\EAC Rips\GREEK\Alkistis Protopsalti\Alkistis Protopsalti - Sto wraiotero simeio\Alkistis Protopsalti - Sto Wraiotero simeio.wav

Peak level 100.0 %
Extraction speed 0.5 X
Range quality 100.0 %
Test CRC 2D4BC731
Copy CRC 2D4BC731
Copy OK

No errors occurred


AccurateRip summary

Track 1 not present in database
Track 2 not present in database
Track 3 not present in database
Track 4 not present in database
Track 5 not present in database
Track 6 not present in database
Track 7 not present in database
Track 8 not present in database
Track 9 not present in database
Track 10 not present in database
Track 11 not present in database
Track 12 not present in database

None of the tracks are present in the AccurateRip database

End of status report

==== Log checksum 02E29C8FED48E1C4229EF869074A753E09C9700129DAF31615A12A3683A5C0FE ====

ADVERTISING » Click here to download Ebooks/Magazines for free « ADVERTISING


Posted By: Rosemy Date: 18 Sep 2011 09:21:52
Merci Speedy et merveilleux dimanche! Je pense beaucoup à ce que ton pays traverse... c'est horrible et Injuste pour son peuple!!! La musique permet d'oublier, un peu...
Posted By: mebe51 Date: 19 Sep 2011 10:51:19
Thanks a lot
;-)