Loading...

Sea of Silence Vol.6 (2 CD)

Posted By : FLESH | Date : 27 Oct 2009 22:26:39 | Comments : 3 |
|


1071509

Sea of Silence Vol.6 (2 CD)
Electronic, Lounge, Lo-Fi, Ambient, Chillout
FLAC+cue+log | 806.0 Mb | MP3, 192 Kbps | 192.1 Mb | Covers
Label: More Music & Media | Catalog#: 88697310662 | Released: 2007

Tracklisting:
CD1:
01. Blue Chakra - Free From You (Half Tempo Long Chill Mix)
02. Soulchillaz Feat. Silvia Bollnow - Forgiveness
03. Hardsoul Feat. Ron Caroll - Back Together (Mad Mark’s Half Tempo Mix)
04. Michael E - Kiss
05. Trillian - A Little Love
06. Orange - Endless Summer (Long Mix)
07. Michael E - Primiera Vez
08. Soulchillaz - Your Heart
09. Blue Chakra - It Was The Sweetest Thing (Lounge Mix)
10. Mad Mark - Free Like A Bird
11. Trillian - Force Of Love
12. Michael E - Blow
13. Soulchillaz - Here With You
14. Akmusique - Close Enough
CD2:
01. Rhaban Ali Shai - Sunseeker
02. Serge Monfils - La Couronne Du Singe
03. Evan Cortez - Desert Sand
04. Riccardo Ebersbacher - Light Signs
05. Costa Van Roy - 555
06. Robyn West - Endless Oceans
07. Rhaban Ali Shai - Slow Boat
08. Bijelo De La Cruz - Casa Mandell
09. Tranquillo Jones - No Script
10. Ian Ontar - Dakkar Dreams
11. Sweet Chill - Carousel
12. Bk Sisters - Six For Sid
13. Creto - The Missing Link
14. Oberlokpn Rules - Into The Dawn

log cd1
Exact Audio Copy V0.99 prebeta 4 from 23. January 2008

EAC extraction logfile from 19. September 2009, 8:47

Various / Sea Of Silence Vol.6 - CD1

Used drive : PIONEER DVD-RW DVR-112D Adapter: 1 ID: 0

Read mode : Secure
Utilize accurate stream : Yes
Defeat audio cache : Yes
Make use of C2 pointers : No

Read offset correction : 48
Overread into Lead-In and Lead-Out : No
Fill up missing offset samples with silence : Yes
Delete leading and trailing silent blocks : No
Null samples used in CRC calculations : Yes
Used interface : Installed external ASPI interface

Used output format : User Defined Encoder
Selected bitrate : 192 kBit/s
Quality : Low
Add ID3 tag : Yes
Command line compressor : C:\Program Files\E A C Audio\Flac\flac.exe
Additional command line options : -V -8 -T "artist=%a" -T "title=%t" -T "album=%g" -T "date=%y" -T "tracknumber=%n" -T "genre=%m" %s


TOC of the extracted CD

Track | Start | Length | Start sector | End sector
---------------------------------------------------------
1 | 0:00.00 | 5:01.67 | 0 | 22641
2 | 5:01.67 | 5:12.47 | 22642 | 46088
3 | 10:14.39 | 5:44.42 | 46089 | 71930
4 | 15:59.06 | 6:00.70 | 71931 | 99000
5 | 22:00.01 | 4:54.39 | 99001 | 121089
6 | 26:54.40 | 5:15.28 | 121090 | 144742
7 | 32:09.68 | 4:30.56 | 144743 | 165048
8 | 36:40.49 | 5:11.56 | 165049 | 188429
9 | 41:52.30 | 5:21.44 | 188430 | 212548
10 | 47:13.74 | 3:50.08 | 212549 | 229806
11 | 51:04.07 | 5:24.14 | 229807 | 254120
12 | 56:28.21 | 5:48.13 | 254121 | 280233
13 | 62:16.34 | 5:02.31 | 280234 | 302914
14 | 67:18.65 | 4:02.19 | 302915 | 321083


Range status and errors

Selected range

Filename D:\Various - Sea Of Silence\Various - Sea Of Silence Vol.6\Various - Sea Of Silence Vol.6 - CD1.wav

Peak level 99.7 %
Range quality 99.9 %
Test CRC DA0B2F87
Copy CRC DA0B2F87
Copy OK

No errors occurred


AccurateRip summary

Track 1 accurately ripped (confidence 1) [773B9D05]
Track 2 accurately ripped (confidence 1) [F898865D]
Track 3 accurately ripped (confidence 1) [32DAA2AE]
Track 4 accurately ripped (confidence 1) [C7AA2AA1]
Track 5 accurately ripped (confidence 1) [5B5CEE97]
Track 6 accurately ripped (confidence 1) [98211A2C]
Track 7 accurately ripped (confidence 1) [68F12F9A]
Track 8 accurately ripped (confidence 1) [B1398B88]
Track 9 accurately ripped (confidence 1) [C3F3D591]
Track 10 accurately ripped (confidence 1) [B7ECDCC5]
Track 11 accurately ripped (confidence 1) [8CE0D1A3]
Track 12 accurately ripped (confidence 1) [DF10B82B]
Track 13 accurately ripped (confidence 1) [B44CEF83]
Track 14 accurately ripped (confidence 1) [D9BB0878]

All tracks accurately ripped

End of status report

log cd2
Exact Audio Copy V0.99 prebeta 4 from 23. January 2008

EAC extraction logfile from 19. September 2009, 9:13

Various / Sea Of Silence Vol.6 - CD2

Used drive : PIONEER DVD-RW DVR-112D Adapter: 1 ID: 0

Read mode : Secure
Utilize accurate stream : Yes
Defeat audio cache : Yes
Make use of C2 pointers : No

Read offset correction : 48
Overread into Lead-In and Lead-Out : No
Fill up missing offset samples with silence : Yes
Delete leading and trailing silent blocks : No
Null samples used in CRC calculations : Yes
Used interface : Installed external ASPI interface

Used output format : User Defined Encoder
Selected bitrate : 192 kBit/s
Quality : Low
Add ID3 tag : Yes
Command line compressor : C:\Program Files\E A C Audio\Flac\flac.exe
Additional command line options : -V -8 -T "artist=%a" -T "title=%t" -T "album=%g" -T "date=%y" -T "tracknumber=%n" -T "genre=%m" %s


TOC of the extracted CD

Track | Start | Length | Start sector | End sector
---------------------------------------------------------
1 | 0:00.00 | 5:01.40 | 0 | 22614
2 | 5:01.40 | 4:01.09 | 22615 | 40698
3 | 9:02.49 | 5:27.52 | 40699 | 65275
4 | 14:30.26 | 3:43.42 | 65276 | 82042
5 | 18:13.68 | 4:24.18 | 82043 | 101860
6 | 22:38.11 | 3:42.29 | 101861 | 118539
7 | 26:20.40 | 4:33.32 | 118540 | 139046
8 | 30:53.72 | 6:05.32 | 139047 | 166453
9 | 36:59.29 | 7:07.60 | 166454 | 198538
10 | 44:07.14 | 5:32.10 | 198539 | 223448
11 | 49:39.24 | 5:12.02 | 223449 | 246850
12 | 54:51.26 | 6:06.48 | 246851 | 274348
13 | 60:57.74 | 3:23.44 | 274349 | 289617
14 | 64:21.43 | 5:38.00 | 289618 | 314967


Range status and errors

Selected range

Filename D:\Various - Sea Of Silence\Various - Sea Of Silence Vol.6\Various - Sea Of Silence Vol.6 - CD2.wav

Peak level 99.7 %
Range quality 99.9 %
Test CRC 58CE3203
Copy CRC 58CE3203
Copy OK

No errors occurred


AccurateRip summary

Track 1 accurately ripped (confidence 1) [C14F5C8B]
Track 2 accurately ripped (confidence 1) [19EC111A]
Track 3 accurately ripped (confidence 1) [A7E846B3]
Track 4 accurately ripped (confidence 1) [63727144]
Track 5 accurately ripped (confidence 1) [0C105F42]
Track 6 accurately ripped (confidence 1) [F87BD148]
Track 7 accurately ripped (confidence 1) [5E0B9B35]
Track 8 accurately ripped (confidence 1) [2B74A79E]
Track 9 accurately ripped (confidence 1) [89FFF834]
Track 10 accurately ripped (confidence 1) [6458B243]
Track 11 accurately ripped (confidence 1) [33A1DEB9]
Track 12 accurately ripped (confidence 1) [8468D7F2]
Track 13 accurately ripped (confidence 1) [148FFB10]
Track 14 accurately ripped (confidence 1) [FDF81745]

All tracks accurately ripped

End of status report


lossless
Download from DepositFiles
CD1
Part 1 | Part 2 | Part 3 | Part 4 | Part 5
CD2
Part 1 | Part 2 | Part 3 | Part 4 | Part 5
Download from RapidShare
CD1
Part 1 | Part 2 | Part 3 | Part 4 | Part 5
CD2
Part 1 | Part 2 | Part 3 | Part 4 | Part 5

mp3
Download from DepositFiles
CD1
Part 1 | Part 2
CD2
CD2
Download from RapidShare
CD1
Part 1 | Part 2
CD2
CD2

Covers
Download from DepositFiles | Download from RapidShare

Welcome to my Blog

ADVERTISING » Free Fast Download! « ADVERTISING


Posted By: Blade runner Date: 31 Oct 2009 04:57:04
Files are no longer available. A repost would be appreciated.
Posted By: strange_dream Date: 08 Nov 2009 00:01:30
Any chance to repost it?
Posted By: Blue61 Date: 09 Nov 2009 20:06:01
Is possible to reupload this CD in lossless?

Thank you very much from Spain.
Muchas gracias !!!