Loading...

Fransisco Montaro Ensemble - Strictly Ballroom Rhumba (1990)

Posted By : Speedyclick | Date : 12 Dec 2010 12:39:51 | Comments : 2 |
|



Fransisco Montaro Ensemble - Strictly Ballroom Rhumba (1990)
EAC Rip | FLAC (image & cue & log) & mp3 @ 320 kbps | tracks: 10 | Scans | 39:07 | ~ 136 Mb & 95 Mb
Label: Tring | 5% recovery record | Instrumental, latin jazz, rhumba

Nice jazzy improvisations on 10 popular rhumba tunes, by the Fransisco Montaro Ensemble. Brassy sound and percussion put you in a dancing mood. Enjoy.

TRACKLIST
01. Miami Beach Rumba
02. Siboney
03. Flamingo
04. Besame Mucho
05. Que reste II de nos amours
06. And I love her
07. If
08. Serenata
09. Speak low
10. Cherish

EAC log
Exact Audio Copy V0.99 prebeta 5 from 4. May 2009

EAC extraction logfile from 11. December 2010, 19:47

Francisco Montaro Ensemble / Strictly Ballroom - Rumba

Used drive : HL-DT-STDVDRAM GH10N Adapter: 1 ID: 0

Read mode : Secure
Utilize accurate stream : Yes
Defeat audio cache : No
Make use of C2 pointers : No

Read offset correction : 667
Overread into Lead-In and Lead-Out : No
Fill up missing offset samples with silence : Yes
Delete leading and trailing silent blocks : No
Null samples used in CRC calculations : No
Used interface : Native Win32 interface for Win NT & 2000

Used output format : Internal WAV Routines
Sample format : 44.100 Hz; 16 Bit; Stereo


TOC of the extracted CD

Track | Start | Length | Start sector | End sector
---------------------------------------------------------
1 | 0:00.00 | 4:23.40 | 0 | 19764
2 | 4:23.40 | 3:41.55 | 19765 | 36394
3 | 8:05.20 | 3:33.57 | 36395 | 52426
4 | 11:39.02 | 3:40.53 | 52427 | 68979
5 | 15:19.55 | 3:51.47 | 68980 | 86351
6 | 19:11.27 | 3:56.20 | 86352 | 104071
7 | 23:07.47 | 3:59.55 | 104072 | 122051
8 | 27:07.27 | 3:57.73 | 122052 | 139899
9 | 31:05.25 | 4:16.62 | 139900 | 159161
10 | 35:22.12 | 3:45.25 | 159162 | 176061


Range status and errors

Selected range

Filename S:\EAC Rips\Strictly Ballroom - Rhumba\Francisco Montaro Ensemble - Strictly Ballroom - Rumba.wav

Peak level 91.6 %
Range quality 100.0 %
Copy CRC D0A669DC
Copy OK

No errors occurred


AccurateRip summary

Track 1 not present in database
Track 2 not present in database
Track 3 not present in database
Track 4 not present in database
Track 5 not present in database
Track 6 not present in database
Track 7 not present in database
Track 8 not present in database
Track 9 not present in database
Track 10 not present in database

None of the tracks are present in the AccurateRip database

End of status report

ADVERTISING » Very Fast Download! « ADVERTISING


Posted By: itadiegues Date: 12 Dec 2010 15:45:43
Thanks Speedyclick.
Posted By: humyaimakmak Date: 12 Dec 2010 16:19:39
Thanks very much.