Loading...

Himekami – 10 first albums (1981-1989) Pony Canyon Japan [PCCR-00091 - PCCR-00100] Re-Up

Posted By : Designol | Date : 02 Aug 2012 12:35:00 | Comments : 8 |
|



Himekami – 10 first albums (1981-1989) Pony Canyon Japan [PCCR-00091 - PCCR-00100]
EAC | FLAC | Tracks (Cue&Log) ~ 208 Mb (incl 5%) | Mp3 (CBR320/Stereo) ~ 113 Mb (incl 5%) | Complete scans included
Genre: New Age, Progressive Electronic, Instrumental, Ethnic Fusion | Label: Pony Canyon | # PCCR-00091 - PCCR-00100 | Time: 06:42:20

Himekami (姫神) is a Japanese musical group. The name is derived from Mount Himekami in Morioka, Iwate Prefecture. The group was founded in 1980 by composer Yoshiaki Hoshi as Himekami Sensation (姫神せんせいしょん Himekami Senseishon), and includes synthesizer player Yoshiki Hoshi (星吉紀) and vocalists Wakako Nakajima, Tomoko Fujii, Junko Shiwa, and Yoriko Sano. The group changed its name to Himekami in 1984.


Official Website
Wiki


------------------------------------------------------------------------------------------------



Himekami-Sensation - Oku-no-Hosomishi (1981)
EAC | FLAC | Tracks (Cue&Log) ~ 261 Mb (incl 5%) | Mp3 (CBR320/Stereo) ~ 101 Mb (incl 5%) | Complete scans included
Genre: New Age, Progressive Electronic, Instrumental, Ethnic Fusion | Label: Pony Canyon | # PCCR-00091 | Time: 00:38:10


Tracklist:

01 - Ariso
02 - Oku-no-Hosomichi
03 - Ri-A-Su
04 - Murasaki-No
05 - Yamataikoku-no-Yoake
06 - Gun-Do
07 - Iwashimizu
08 - Yuku-Aki
09 - Hotaru
10 - Yamase


EAC log
Exact Audio Copy V0.99 prebeta 4 from 23. January 2008

EAC extraction logfile from 9. August 2009, 11:25

Himekami - Sensattion / Oku-no-Hosomichi

Used drive : HL-DT-STDVDRAM GSA-H42N Adapter: 0 ID: 1

Read mode : Secure
Utilize accurate stream : Yes
Defeat audio cache : Yes
Make use of C2 pointers : No

Read offset correction : 667
Overread into Lead-In and Lead-Out : No
Fill up missing offset samples with silence : Yes
Delete leading and trailing silent blocks : No
Null samples used in CRC calculations : Yes
Used interface : Installed external ASPI interface
Gap handling : Appended to previous track

Used output format : User Defined Encoder
Selected bitrate : 1024 kBit/s
Quality : High
Add ID3 tag : No
Command line compressor : C:\Program Files\Exact Audio Copy\FLAC\FLAC.EXE
Additional command line options : -8 -V -T "ARTIST=%a" -T "TITLE=%t" -T "ALBUM=%g" -T "DATE=%y" -T "TRACKNUMBER=%n" -T "GENRE=%m" -T "COMMENT=%e" %s -o %d


TOC of the extracted CD

Track | Start | Length | Start sector | End sector
---------------------------------------------------------
1 | 0:00.00 | 2:02.25 | 0 | 9174
2 | 2:02.25 | 3:54.00 | 9175 | 26724
3 | 5:56.25 | 3:53.50 | 26725 | 44249
4 | 9:50.00 | 4:17.65 | 44250 | 63589
5 | 14:07.65 | 5:05.35 | 63590 | 86499
6 | 19:13.25 | 3:28.07 | 86500 | 102106
7 | 22:41.32 | 3:56.60 | 102107 | 119866
8 | 26:38.17 | 4:02.45 | 119867 | 138061
9 | 30:40.62 | 3:35.48 | 138062 | 154234
10 | 34:16.35 | 3:53.70 | 154235 | 171779


Track 1

Filename E:\Torrent\Out\NewAge\Lossless\Himekami 10+3 CD\1\01 - Ariso .wav

Pre-gap length 0:00:02.00

Peak level 76.8 %
Track quality 100.0 %
Test CRC 7BB6A15E
Copy CRC 7BB6A15E
Track not present in AccurateRip database
Copy OK

Track 2

Filename E:\Torrent\Out\NewAge\Lossless\Himekami 10+3 CD\1\02 - Oku-no-Hosomichi .wav

Peak level 100.0 %
Track quality 100.0 %
Test CRC 5C0C944D
Copy CRC 5C0C944D
Track not present in AccurateRip database
Copy OK

Track 3

Filename E:\Torrent\Out\NewAge\Lossless\Himekami 10+3 CD\1\03 - Ri-A-Su .wav

Peak level 98.4 %
Track quality 100.0 %
Test CRC BF41A7A3
Copy CRC BF41A7A3
Track not present in AccurateRip database
Copy OK

Track 4

Filename E:\Torrent\Out\NewAge\Lossless\Himekami 10+3 CD\1\04 - Murasaki-No .wav

Pre-gap length 0:00:01.73

Peak level 53.9 %
Track quality 100.0 %
Test CRC 0248B9C1
Copy CRC 0248B9C1
Track not present in AccurateRip database
Copy OK

Track 5

Filename E:\Torrent\Out\NewAge\Lossless\Himekami 10+3 CD\1\05 - Yamataikoku-no-Yoake .wav

Pre-gap length 0:00:02.04

Peak level 83.1 %
Track quality 100.0 %
Test CRC 5A383BB4
Copy CRC 5A383BB4
Track not present in AccurateRip database
Copy OK

Track 6

Filename E:\Torrent\Out\NewAge\Lossless\Himekami 10+3 CD\1\06 - Gun-Do .wav

Pre-gap length 0:00:00.84

Peak level 83.1 %
Track quality 100.0 %
Test CRC A5AC9B67
Copy CRC A5AC9B67
Track not present in AccurateRip database
Copy OK

Track 7

Filename E:\Torrent\Out\NewAge\Lossless\Himekami 10+3 CD\1\07 - Iwashimizu .wav

Pre-gap length 0:00:01.00

Peak level 91.2 %
Track quality 100.0 %
Test CRC DC7721F1
Copy CRC DC7721F1
Track not present in AccurateRip database
Copy OK

Track 8

Filename E:\Torrent\Out\NewAge\Lossless\Himekami 10+3 CD\1\08 - Yuku-Aki .wav

Pre-gap length 0:00:02.46

Peak level 91.1 %
Track quality 100.0 %
Test CRC D13BB8E8
Copy CRC D13BB8E8
Track not present in AccurateRip database
Copy OK

Track 9

Filename E:\Torrent\Out\NewAge\Lossless\Himekami 10+3 CD\1\09 - Hotaru .wav

Pre-gap length 0:00:02.36

Peak level 79.4 %
Track quality 100.0 %
Test CRC 410585A4
Copy CRC 410585A4
Track not present in AccurateRip database
Copy OK

Track 10

Filename E:\Torrent\Out\NewAge\Lossless\Himekami 10+3 CD\1\10 - Yamase .wav

Pre-gap length 0:00:02.86

Peak level 85.1 %
Track quality 100.0 %
Test CRC 64F20361
Copy CRC 64F20361
Track not present in AccurateRip database
Copy OK


None of the tracks are present in the AccurateRip database

No errors occurred

End of status report


------------------------------------------------------------------------------------------------



Himekami-Sensation - Tohno (1982)
EAC | FLAC | Tracks (Cue&Log) ~ 267 Mb (incl 5%) | Mp3 (CBR320/Stereo) ~ 107 Mb (incl 5%) | Complete scans included
Genre: New Age, Progressive Electronic, Instrumental, Ethnic Fusion | Label: Pony Canyon | # PCCR-00092 | Time: 00:42:07


Tracklist:

01 - Harukaze-Matsuri
02 - Mizu-Hikaru
03 - Tohge
04 - Samuto
05 - Hayachine
06 - Ayaori
07 - Kappa-Buchi
08 - Akai-Kushi
09 - Suisha-Maware


EAC log
Exact Audio Copy V0.99 prebeta 4 from 23. January 2008

EAC extraction logfile from 9. August 2009, 13:12

Himekami - Sensation / Tohno

Used drive : HL-DT-STDVDRAM GSA-H42N Adapter: 0 ID: 1

Read mode : Secure
Utilize accurate stream : Yes
Defeat audio cache : Yes
Make use of C2 pointers : No

Read offset correction : 667
Overread into Lead-In and Lead-Out : No
Fill up missing offset samples with silence : Yes
Delete leading and trailing silent blocks : No
Null samples used in CRC calculations : Yes
Used interface : Installed external ASPI interface
Gap handling : Appended to previous track

Used output format : User Defined Encoder
Selected bitrate : 1024 kBit/s
Quality : High
Add ID3 tag : No
Command line compressor : C:\Program Files\Exact Audio Copy\FLAC\FLAC.EXE
Additional command line options : -8 -V -T "ARTIST=%a" -T "TITLE=%t" -T "ALBUM=%g" -T "DATE=%y" -T "TRACKNUMBER=%n" -T "GENRE=%m" -T "COMMENT=%e" %s -o %d


TOC of the extracted CD

Track | Start | Length | Start sector | End sector
---------------------------------------------------------
1 | 0:00.00 | 4:14.27 | 0 | 19076
2 | 4:14.27 | 5:19.43 | 19077 | 43044
3 | 9:33.70 | 5:25.65 | 43045 | 67484
4 | 14:59.60 | 4:50.45 | 67485 | 89279
5 | 19:50.30 | 4:36.62 | 89280 | 110041
6 | 24:27.17 | 4:45.15 | 110042 | 131431
7 | 29:12.32 | 4:13.15 | 131432 | 150421
8 | 33:25.47 | 4:20.40 | 150422 | 169961
9 | 37:46.12 | 4:21.58 | 169962 | 189594


Track 1

Filename E:\Torrent\Out\NewAge\Lossless\Himekami 10+3 CD\2\01 - Harukaze-Matsuri .wav

Pre-gap length 0:00:02.00

Peak level 100.0 %
Track quality 99.9 %
Test CRC 485DE21E
Copy CRC 485DE21E
Track not present in AccurateRip database
Copy OK

Track 2

Filename E:\Torrent\Out\NewAge\Lossless\Himekami 10+3 CD\2\02 - Mizu-Hikaru .wav

Peak level 78.1 %
Track quality 100.0 %
Test CRC A7154F63
Copy CRC A7154F63
Track not present in AccurateRip database
Copy OK

Track 3

Filename E:\Torrent\Out\NewAge\Lossless\Himekami 10+3 CD\2\03 - Tohge .wav

Peak level 67.6 %
Track quality 100.0 %
Test CRC DA80BB5C
Copy CRC DA80BB5C
Track not present in AccurateRip database
Copy OK

Track 4

Filename E:\Torrent\Out\NewAge\Lossless\Himekami 10+3 CD\2\04 - Samuto .wav

Pre-gap length 0:00:01.17

Peak level 100.0 %
Track quality 100.0 %
Test CRC 5ACE18F3
Copy CRC 5ACE18F3
Track not present in AccurateRip database
Copy OK

Track 5

Filename E:\Torrent\Out\NewAge\Lossless\Himekami 10+3 CD\2\05 - Hayachine .wav

Pre-gap length 0:00:01.37

Peak level 97.7 %
Track quality 100.0 %
Test CRC 3C186683
Copy CRC 3C186683
Track not present in AccurateRip database
Copy OK

Track 6

Filename E:\Torrent\Out\NewAge\Lossless\Himekami 10+3 CD\2\06 - Ayaori .wav

Peak level 82.8 %
Track quality 100.0 %
Test CRC 27333ECF
Copy CRC 27333ECF
Track not present in AccurateRip database
Copy OK

Track 7

Filename E:\Torrent\Out\NewAge\Lossless\Himekami 10+3 CD\2\07 - Kappa-Buchi .wav

Peak level 100.0 %
Track quality 100.0 %
Test CRC 8D57BBEB
Copy CRC 8D57BBEB
Track not present in AccurateRip database
Copy OK

Track 8

Filename E:\Torrent\Out\NewAge\Lossless\Himekami 10+3 CD\2\08 - Akai-Kushi .wav

Peak level 85.3 %
Track quality 100.0 %
Test CRC E29BC2AB
Copy CRC E29BC2AB
Track not present in AccurateRip database
Copy OK

Track 9

Filename E:\Torrent\Out\NewAge\Lossless\Himekami 10+3 CD\2\09 - Suisha-Maware .wav

Peak level 100.0 %
Track quality 100.0 %
Test CRC 6EE2A6C7
Copy CRC 6EE2A6C7
Track not present in AccurateRip database
Copy OK


None of the tracks are present in the AccurateRip database

No errors occurred

End of status report


------------------------------------------------------------------------------------------------



Himekami-Sensation - Himekami (1982)
EAC | FLAC | Tracks (Cue&Log) ~ 302 Mb (incl 5%) | Mp3 (CBR320/Stereo) ~ 109 Mb (incl 5%) | Complete scans included
Genre: New Age, Progressive Electronic, Instrumental, Ethnic Fusion | Label: Pony Canyon | # PCCR-00093 | Time: 00:43:48


Tracklist:

01 - Maidori
02 - Nanashigure
03 - Kai-Goma
04 - Sora-no-Tohku-no-Shiroi-Hi
05 - Tsuki-no-Honoo
06 - Emburi
07 - Shiroi-Kawa
08 - Hana-No
09 - Mori
10 - Kaze-Hikaru


EAC log
Exact Audio Copy V0.99 prebeta 4 from 23. January 2008

EAC extraction logfile from 9. August 2009, 13:36

Himekami - Sensation / Himekami

Used drive : HL-DT-STDVDRAM GSA-H42N Adapter: 0 ID: 1

Read mode : Secure
Utilize accurate stream : Yes
Defeat audio cache : Yes
Make use of C2 pointers : No

Read offset correction : 667
Overread into Lead-In and Lead-Out : No
Fill up missing offset samples with silence : Yes
Delete leading and trailing silent blocks : No
Null samples used in CRC calculations : Yes
Used interface : Installed external ASPI interface
Gap handling : Appended to previous track

Used output format : User Defined Encoder
Selected bitrate : 1024 kBit/s
Quality : High
Add ID3 tag : No
Command line compressor : C:\Program Files\Exact Audio Copy\FLAC\FLAC.EXE
Additional command line options : -8 -V -T "ARTIST=%a" -T "TITLE=%t" -T "ALBUM=%g" -T "DATE=%y" -T "TRACKNUMBER=%n" -T "GENRE=%m" -T "COMMENT=%e" %s -o %d


TOC of the extracted CD

Track | Start | Length | Start sector | End sector
---------------------------------------------------------
1 | 0:00.00 | 3:49.67 | 0 | 17241
2 | 3:49.67 | 3:39.68 | 17242 | 33734
3 | 7:29.60 | 3:30.40 | 33735 | 49524
4 | 11:00.25 | 4:57.12 | 49525 | 71811
5 | 15:57.37 | 5:23.23 | 71812 | 96059
6 | 21:20.60 | 4:41.67 | 96060 | 117201
7 | 26:02.52 | 5:34.50 | 117202 | 142301
8 | 31:37.27 | 3:51.23 | 142302 | 159649
9 | 35:28.50 | 4:17.37 | 159650 | 178961
10 | 39:46.12 | 4:02.15 | 178962 | 197126


Track 1

Filename E:\Torrent\Out\NewAge\Lossless\Himekami 10+3 CD\3\01 - Maidori .wav

Pre-gap length 0:00:02.00

Peak level 100.0 %
Track quality 100.0 %
Test CRC 7A5F0CC1
Copy CRC 7A5F0CC1
Track not present in AccurateRip database
Copy OK

Track 2

Filename E:\Torrent\Out\NewAge\Lossless\Himekami 10+3 CD\3\02 - Nanashigure .wav

Peak level 94.0 %
Track quality 100.0 %
Test CRC 56B56FDF
Copy CRC 56B56FDF
Track not present in AccurateRip database
Copy OK

Track 3

Filename E:\Torrent\Out\NewAge\Lossless\Himekami 10+3 CD\3\03 - Kai-Goma .wav

Peak level 100.0 %
Track quality 99.9 %
Test CRC F8BAA745
Copy CRC F8BAA745
Track not present in AccurateRip database
Copy OK

Track 4

Filename E:\Torrent\Out\NewAge\Lossless\Himekami 10+3 CD\3\04 - Sora-no-Tohku-no-Shiroi-Hi .wav

Peak level 77.3 %
Track quality 100.0 %
Test CRC 035A1899
Copy CRC 035A1899
Track not present in AccurateRip database
Copy OK

Track 5

Filename E:\Torrent\Out\NewAge\Lossless\Himekami 10+3 CD\3\05 - Tsuki-no-Honoo .wav

Peak level 75.1 %
Track quality 100.0 %
Test CRC 55A8E5D5
Copy CRC 55A8E5D5
Track not present in AccurateRip database
Copy OK

Track 6

Filename E:\Torrent\Out\NewAge\Lossless\Himekami 10+3 CD\3\06 - Emburi .wav

Peak level 97.5 %
Track quality 99.9 %
Test CRC 2F8D0291
Copy CRC 2F8D0291
Track not present in AccurateRip database
Copy OK

Track 7

Filename E:\Torrent\Out\NewAge\Lossless\Himekami 10+3 CD\3\07 - Shiroi-Kawa .wav

Peak level 82.6 %
Track quality 100.0 %
Test CRC 235AEA25
Copy CRC 235AEA25
Track not present in AccurateRip database
Copy OK

Track 8

Filename E:\Torrent\Out\NewAge\Lossless\Himekami 10+3 CD\3\08 - Hana-No .wav

Peak level 87.7 %
Track quality 100.0 %
Test CRC FA0AB15D
Copy CRC FA0AB15D
Track not present in AccurateRip database
Copy OK

Track 9

Filename E:\Torrent\Out\NewAge\Lossless\Himekami 10+3 CD\3\09 - Mori .wav

Peak level 100.0 %
Track quality 100.0 %
Test CRC DBF8B1E6
Copy CRC DBF8B1E6
Track not present in AccurateRip database
Copy OK

Track 10

Filename E:\Torrent\Out\NewAge\Lossless\Himekami 10+3 CD\3\10 - Kaze-Hikaru .wav

Peak level 100.0 %
Track quality 100.0 %
Test CRC 58523537
Copy CRC 58523537
Track not present in AccurateRip database
Copy OK


None of the tracks are present in the AccurateRip database

No errors occurred

End of status report


------------------------------------------------------------------------------------------------



Himekami-Sensation - Himekami Densetsu (1983)
EAC | FLAC | Tracks (Cue&Log) ~ 258 Mb (incl 5%) | Mp3 (CBR320/Stereo) ~ 102 Mb (incl 5%) | Complete scans included
Genre: New Age, Progressive Electronic, Instrumental, Ethnic Fusion | Label: Pony Canyon | # PCCR-00094 | Time: 00:38:41


Tracklist:

01 - Tori No Gotoku
02 - Utage
03 - Tooihi Kaze Ha Aoao
04 - Kiri No Hana Murasaki NI Moe
05 - Yamagamimatsuri
06 - Tosa No Sunayama
07 - Hayato
08 - Hokuten No Hoshi
09 - Yukionna


EAC log
Exact Audio Copy V0.99 prebeta 4 from 23. January 2008

EAC extraction logfile from 9. August 2009, 12:34

Himekami Sensation / Homekami Densetsu

Used drive : HL-DT-STDVDRAM GSA-H42N Adapter: 0 ID: 1

Read mode : Secure
Utilize accurate stream : Yes
Defeat audio cache : Yes
Make use of C2 pointers : No

Read offset correction : 667
Overread into Lead-In and Lead-Out : No
Fill up missing offset samples with silence : Yes
Delete leading and trailing silent blocks : No
Null samples used in CRC calculations : Yes
Used interface : Installed external ASPI interface
Gap handling : Appended to previous track

Used output format : User Defined Encoder
Selected bitrate : 1024 kBit/s
Quality : High
Add ID3 tag : No
Command line compressor : C:\Program Files\Exact Audio Copy\FLAC\FLAC.EXE
Additional command line options : -8 -V -T "ARTIST=%a" -T "TITLE=%t" -T "ALBUM=%g" -T "DATE=%y" -T "TRACKNUMBER=%n" -T "GENRE=%m" -T "COMMENT=%e" %s -o %d


TOC of the extracted CD

Track | Start | Length | Start sector | End sector
---------------------------------------------------------
1 | 0:00.00 | 3:55.45 | 0 | 17669
2 | 3:55.45 | 3:55.67 | 17670 | 35361
3 | 7:51.37 | 4:14.13 | 35362 | 54424
4 | 12:05.50 | 3:27.32 | 54425 | 69981
5 | 15:33.07 | 4:07.05 | 69982 | 88511
6 | 19:40.12 | 4:51.38 | 88512 | 110374
7 | 24:31.50 | 6:18.62 | 110375 | 138786
8 | 30:50.37 | 4:00.50 | 138787 | 156836
9 | 34:51.12 | 3:50.63 | 156837 | 174149


Track 1

Filename E:\Torrent\Out\NewAge\Lossless\Himekami 10+3 CD\4\01 - Tori No Gotoku .wav

Pre-gap length 0:00:02.00

Peak level 93.6 %
Track quality 100.0 %
Test CRC 471D1712
Copy CRC 471D1712
Track not present in AccurateRip database
Copy OK

Track 2

Filename E:\Torrent\Out\NewAge\Lossless\Himekami 10+3 CD\4\02 - Utage .wav

Pre-gap length 0:00:01.26

Peak level 94.6 %
Track quality 100.0 %
Test CRC A7726B4D
Copy CRC A7726B4D
Track not present in AccurateRip database
Copy OK

Track 3

Filename E:\Torrent\Out\NewAge\Lossless\Himekami 10+3 CD\4\03 - Tooihi Kaze Ha Aoao .wav

Pre-gap length 0:00:01.29

Peak level 68.4 %
Track quality 100.0 %
Test CRC E64BE61B
Copy CRC E64BE61B
Track not present in AccurateRip database
Copy OK

Track 4

Filename E:\Torrent\Out\NewAge\Lossless\Himekami 10+3 CD\4\04 - Kiri No Hana Murasaki NI Moe .wav

Pre-gap length 0:00:01.57

Peak level 100.0 %
Track quality 100.0 %
Test CRC 695C5691
Copy CRC 695C5691
Track not present in AccurateRip database
Copy OK

Track 5

Filename E:\Torrent\Out\NewAge\Lossless\Himekami 10+3 CD\4\05 - Yamagamimatsuri .wav

Pre-gap length 0:00:01.80

Peak level 78.9 %
Track quality 99.9 %
Test CRC 0CF74FF2
Copy CRC 0CF74FF2
Track not present in AccurateRip database
Copy OK

Track 6

Filename E:\Torrent\Out\NewAge\Lossless\Himekami 10+3 CD\4\06 - Tosa No Sunayama .wav

Pre-gap length 0:00:01.76

Peak level 87.2 %
Track quality 100.0 %
Test CRC 1C5C417C
Copy CRC 1C5C417C
Track not present in AccurateRip database
Copy OK

Track 7

Filename E:\Torrent\Out\NewAge\Lossless\Himekami 10+3 CD\4\07 - Hayato .wav

Pre-gap length 0:00:01.30

Peak level 84.3 %
Track quality 100.0 %
Test CRC C98EB4E3
Copy CRC C98EB4E3
Track not present in AccurateRip database
Copy OK

Track 8

Filename E:\Torrent\Out\NewAge\Lossless\Himekami 10+3 CD\4\08 - Hokuten No Hoshi .wav

Pre-gap length 0:00:01.66

Peak level 59.0 %
Track quality 100.0 %
Test CRC 193A9F85
Copy CRC 193A9F85
Track not present in AccurateRip database
Copy OK

Track 9

Filename E:\Torrent\Out\NewAge\Lossless\Himekami 10+3 CD\4\09 - Yukionna .wav

Pre-gap length 0:00:02.26

Peak level 91.2 %
Track quality 100.0 %
Test CRC 33DB9E9E
Copy CRC 33DB9E9E
Track not present in AccurateRip database
Copy OK


None of the tracks are present in the AccurateRip database

No errors occurred

End of status report


------------------------------------------------------------------------------------------------



Himekami with YAS-KAZ - Mahoroba (1984)
EAC | FLAC | Tracks (Cue&Log) ~ 212 Mb (incl 5%) | Mp3 (CBR320/Stereo) ~ 91 Mb (incl 5%) | Complete scans included
Genre: New Age, Progressive Electronic, Instrumental, Ethnic Fusion | Label: Pony Canyon | # PCCR-00095 | Time: 00:36:48


Tracklist:

01 - Aozora
02 - Hoshi-ga-Furu
03 - Hikari-no-Hibi
04 - Sohgen-Johka
05 - Mahoroba
06 - Magadoki-wo-Yuku


EAC log
Exact Audio Copy V0.99 prebeta 4 from 23. January 2008

EAC extraction logfile from 9. August 2009, 13:56

Himekami with YAS-KAZ / Mahoroba

Used drive : HL-DT-STDVDRAM GSA-H42N Adapter: 0 ID: 1

Read mode : Secure
Utilize accurate stream : Yes
Defeat audio cache : Yes
Make use of C2 pointers : No

Read offset correction : 667
Overread into Lead-In and Lead-Out : No
Fill up missing offset samples with silence : Yes
Delete leading and trailing silent blocks : No
Null samples used in CRC calculations : Yes
Used interface : Installed external ASPI interface
Gap handling : Appended to previous track

Used output format : User Defined Encoder
Selected bitrate : 1024 kBit/s
Quality : High
Add ID3 tag : No
Command line compressor : C:\Program Files\Exact Audio Copy\FLAC\FLAC.EXE
Additional command line options : -8 -V -T "ARTIST=%a" -T "TITLE=%t" -T "ALBUM=%g" -T "DATE=%y" -T "TRACKNUMBER=%n" -T "GENRE=%m" -T "COMMENT=%e" %s -o %d


TOC of the extracted CD

Track | Start | Length | Start sector | End sector
---------------------------------------------------------
1 | 0:00.00 | 3:53.15 | 0 | 17489
2 | 3:53.15 | 4:33.42 | 17490 | 38006
3 | 8:26.57 | 4:27.18 | 38007 | 58049
4 | 12:54.00 | 4:56.02 | 58050 | 80251
5 | 17:50.02 | 13:25.35 | 80252 | 140661
6 | 31:15.37 | 5:33.38 | 140662 | 165674


Track 1

Filename E:\Torrent\Out\NewAge\Lossless\Himekami 10+3 CD\5\01 - Aozora .wav

Pre-gap length 0:00:02.00

Peak level 100.0 %
Track quality 100.0 %
Test CRC 690A30F9
Copy CRC 690A30F9
Track not present in AccurateRip database
Copy OK

Track 2

Filename E:\Torrent\Out\NewAge\Lossless\Himekami 10+3 CD\5\02 - Hoshi-ga-Furu .wav

Pre-gap length 0:00:02.50

Peak level 99.5 %
Track quality 100.0 %
Test CRC C5652136
Copy CRC C5652136
Track not present in AccurateRip database
Copy OK

Track 3

Filename E:\Torrent\Out\NewAge\Lossless\Himekami 10+3 CD\5\03 - Hikari-no-Hibi .wav

Pre-gap length 0:00:02.00

Peak level 99.3 %
Track quality 100.0 %
Test CRC 8948AE4E
Copy CRC 8948AE4E
Track not present in AccurateRip database
Copy OK

Track 4

Filename E:\Torrent\Out\NewAge\Lossless\Himekami 10+3 CD\5\04 - Sohgen-Johka .wav

Pre-gap length 0:00:02.50

Peak level 82.4 %
Track quality 100.0 %
Test CRC E310366A
Copy CRC E310366A
Track not present in AccurateRip database
Copy OK

Track 5

Filename E:\Torrent\Out\NewAge\Lossless\Himekami 10+3 CD\5\05 - Mahoroba .wav

Pre-gap length 0:00:02.49

Peak level 91.1 %
Track quality 100.0 %
Test CRC 00906B3D
Copy CRC 00906B3D
Track not present in AccurateRip database
Copy OK

Track 6

Filename E:\Torrent\Out\NewAge\Lossless\Himekami 10+3 CD\5\06 - Magadoki-wo-Yuku .wav

Pre-gap length 0:00:02.49

Peak level 75.5 %
Track quality 100.0 %
Test CRC F120AC6B
Copy CRC F120AC6B
Track not present in AccurateRip database
Copy OK


None of the tracks are present in the AccurateRip database

No errors occurred

End of status report


------------------------------------------------------------------------------------------------



Himekami with YAS-KAZ - Kaidoh (1986)
EAC | FLAC | Tracks (Cue&Log) ~ 269 Mb (incl 5%) | Mp3 (CBR320/Stereo) ~ 112 Mb (incl 5%) | Complete scans included
Genre: New Age, Progressive Electronic, Instrumental, Ethnic Fusion | Label: Pony Canyon | # PCCR-00096 | Time: 00:45:15


Tracklist:

01 - Kaidoh-wo-Yuku (Part I)
02 - Suna-no-Kagami
03 - Kai-no-Hikari
04 - Akemodoro
05 - Hai-Donan
06 - Watatsumi-ni-Yosete
07 - Ao-Fukaku
08 - Yuunagi-no-Fu
09 - Ryuuhyoh
10 - Kaidoh-wo-Yuku (Part II)
11 - Murubushi


EAC log
Exact Audio Copy V0.99 prebeta 4 from 23. January 2008

EAC extraction logfile from 9. August 2009, 14:25

Himekami with YAS-KAZ / Kaidoh

Used drive : HL-DT-STDVDRAM GSA-H42N Adapter: 0 ID: 1

Read mode : Secure
Utilize accurate stream : Yes
Defeat audio cache : Yes
Make use of C2 pointers : No

Read offset correction : 667
Overread into Lead-In and Lead-Out : No
Fill up missing offset samples with silence : Yes
Delete leading and trailing silent blocks : No
Null samples used in CRC calculations : Yes
Used interface : Installed external ASPI interface
Gap handling : Appended to previous track

Used output format : User Defined Encoder
Selected bitrate : 1024 kBit/s
Quality : High
Add ID3 tag : No
Command line compressor : C:\Program Files\Exact Audio Copy\FLAC\FLAC.EXE
Additional command line options : -8 -V -T "ARTIST=%a" -T "TITLE=%t" -T "ALBUM=%g" -T "DATE=%y" -T "TRACKNUMBER=%n" -T "GENRE=%m" -T "COMMENT=%e" %s -o %d


TOC of the extracted CD

Track | Start | Length | Start sector | End sector
---------------------------------------------------------
1 | 0:00.00 | 4:53.47 | 0 | 22021
2 | 4:53.47 | 3:16.03 | 22022 | 36724
3 | 8:09.50 | 4:40.17 | 36725 | 57741
4 | 12:49.67 | 4:33.20 | 57742 | 78236
5 | 17:23.12 | 2:36.13 | 78237 | 89949
6 | 19:59.25 | 3:59.70 | 89950 | 107944
7 | 23:59.20 | 2:59.42 | 107945 | 121411
8 | 26:58.62 | 4:11.53 | 121412 | 140289
9 | 31:10.40 | 3:53.07 | 140290 | 157771
10 | 35:03.47 | 5:54.43 | 157772 | 184364
11 | 40:58.15 | 4:17.37 | 184365 | 203676


Track 1

Filename E:\Torrent\Out\NewAge\Lossless\Himekami 10+3 CD\6\01 - Kaidoh-wo-Yuku (Part I) .wav

Pre-gap length 0:00:02.00

Peak level 100.0 %
Track quality 100.0 %
Test CRC 3260B460
Copy CRC 3260B460
Track not present in AccurateRip database
Copy OK

Track 2

Filename E:\Torrent\Out\NewAge\Lossless\Himekami 10+3 CD\6\02 - Suna-no-Kagami .wav

Peak level 100.0 %
Track quality 100.0 %
Test CRC 498D69BF
Copy CRC 498D69BF
Track not present in AccurateRip database
Copy OK

Track 3

Filename E:\Torrent\Out\NewAge\Lossless\Himekami 10+3 CD\6\03 - Kai-no-Hikari .wav

Pre-gap length 0:00:02.20

Peak level 93.0 %
Track quality 99.9 %
Test CRC FFAC58DB
Copy CRC FFAC58DB
Track not present in AccurateRip database
Copy OK

Track 4

Filename E:\Torrent\Out\NewAge\Lossless\Himekami 10+3 CD\6\04 - Akemodoro .wav

Pre-gap length 0:00:02.22

Peak level 100.0 %
Track quality 99.9 %
Test CRC 9F477444
Copy CRC 9F477444
Track not present in AccurateRip database
Copy OK

Track 5

Filename E:\Torrent\Out\NewAge\Lossless\Himekami 10+3 CD\6\05 - Hai-Donan .wav

Pre-gap length 0:00:03.33

Peak level 74.4 %
Track quality 100.0 %
Test CRC 59E68C29
Copy CRC 59E68C29
Track not present in AccurateRip database
Copy OK

Track 6

Filename E:\Torrent\Out\NewAge\Lossless\Himekami 10+3 CD\6\06 - Watatsumi-ni-Yosete .wav

Pre-gap length 0:00:02.64

Peak level 95.4 %
Track quality 100.0 %
Test CRC 014415CC
Copy CRC 014415CC
Track not present in AccurateRip database
Copy OK

Track 7

Filename E:\Torrent\Out\NewAge\Lossless\Himekami 10+3 CD\6\07 - Ao-Fukaku .wav

Pre-gap length 0:00:02.46

Peak level 99.8 %
Track quality 100.0 %
Test CRC 1E777B36
Copy CRC 1E777B36
Track not present in AccurateRip database
Copy OK

Track 8

Filename E:\Torrent\Out\NewAge\Lossless\Himekami 10+3 CD\6\08 - Yuunagi-no-Fu .wav

Pre-gap length 0:00:02.02

Peak level 95.9 %
Track quality 99.9 %
Test CRC E6FF3BB8
Copy CRC E6FF3BB8
Track not present in AccurateRip database
Copy OK

Track 9

Filename E:\Torrent\Out\NewAge\Lossless\Himekami 10+3 CD\6\09 - Ryuuhyoh .wav

Pre-gap length 0:00:03.33

Peak level 90.3 %
Track quality 99.9 %
Test CRC 3B81B823
Copy CRC 3B81B823
Track not present in AccurateRip database
Copy OK

Track 10

Filename E:\Torrent\Out\NewAge\Lossless\Himekami 10+3 CD\6\10 - Kaidoh-wo-Yuku (Part II) .wav

Pre-gap length 0:00:02.16

Peak level 92.5 %
Track quality 100.0 %
Test CRC DE6D986E
Copy CRC DE6D986E
Track not present in AccurateRip database
Copy OK

Track 11

Filename E:\Torrent\Out\NewAge\Lossless\Himekami 10+3 CD\6\11 - Murubushi .wav

Pre-gap length 0:00:01.57

Peak level 94.4 %
Track quality 100.0 %
Test CRC 5C792495
Copy CRC 5C792495
Track not present in AccurateRip database
Copy OK


None of the tracks are present in the AccurateRip database

No errors occurred

End of status report


------------------------------------------------------------------------------------------------



Himekami - Hokuten-Gensoh (1986)
EAC | FLAC | Tracks (Cue&Log) ~ 204 Mb (incl 5%) | Mp3 (CBR320/Stereo) ~ 107 Mb (incl 5%) | Complete scans included
Genre: New Age, Progressive Electronic, Instrumental, Ethnic Fusion | Label: Pony Canyon | # PCCR-00097 | Time: 00:43:29


Tracklist:

01 - Daichi-Moyu
02 - Tsuki-no-Akari-wa-Shimiwatari
03 - Hiraizumi
04 - Shiratori-Densetsu
05 - Toh'i-Oto
06 - Hokuroh-no-Mure


EAC log
Exact Audio Copy V0.99 prebeta 4 from 23. January 2008

EAC extraction logfile from 9. August 2009, 14:51

Himekami / Hokuten-Gensoh

Used drive : HL-DT-STDVDRAM GSA-H42N Adapter: 0 ID: 1

Read mode : Secure
Utilize accurate stream : Yes
Defeat audio cache : Yes
Make use of C2 pointers : No

Read offset correction : 667
Overread into Lead-In and Lead-Out : No
Fill up missing offset samples with silence : Yes
Delete leading and trailing silent blocks : No
Null samples used in CRC calculations : Yes
Used interface : Installed external ASPI interface
Gap handling : Appended to previous track

Used output format : User Defined Encoder
Selected bitrate : 1024 kBit/s
Quality : High
Add ID3 tag : No
Command line compressor : C:\Program Files\Exact Audio Copy\FLAC\FLAC.EXE
Additional command line options : -8 -V -T "ARTIST=%a" -T "TITLE=%t" -T "ALBUM=%g" -T "DATE=%y" -T "TRACKNUMBER=%n" -T "GENRE=%m" -T "COMMENT=%e" %s -o %d


TOC of the extracted CD

Track | Start | Length | Start sector | End sector
---------------------------------------------------------
1 | 0:00.00 | 5:02.62 | 0 | 22711
2 | 5:02.62 | 4:44.38 | 22712 | 44049
3 | 9:47.25 | 3:39.32 | 44050 | 60506
4 | 13:26.57 | 3:52.40 | 60507 | 77946
5 | 17:19.22 | 4:22.68 | 77947 | 97664
6 | 21:42.15 | 21:46.70 | 97665 | 195684


Track 1

Filename E:\Torrent\Out\NewAge\Lossless\Himekami 10+3 CD\7\01 - Daichi-Moyu .wav

Pre-gap length 0:00:02.00

Peak level 74.6 %
Track quality 99.9 %
Test CRC AE9126C0
Copy CRC AE9126C0
Cannot be verified as accurate (confidence 1) [1811D8DC], AccurateRip returned [491C4D7A]
Copy OK

Track 2

Filename E:\Torrent\Out\NewAge\Lossless\Himekami 10+3 CD\7\02 - Tsuki-no-Akari-wa-Shimiwatari .wav

Pre-gap length 0:00:01.40

Peak level 82.9 %
Track quality 100.0 %
Test CRC 4F9D4622
Copy CRC 4F9D4622
Track not present in AccurateRip database
Copy OK

Track 3

Filename E:\Torrent\Out\NewAge\Lossless\Himekami 10+3 CD\7\03 - Hiraizumi .wav

Pre-gap length 0:00:00.97

Peak level 79.8 %
Track quality 100.0 %
Test CRC E63FF7F0
Copy CRC E63FF7F0
Track not present in AccurateRip database
Copy OK

Track 4

Filename E:\Torrent\Out\NewAge\Lossless\Himekami 10+3 CD\7\04 - Shiratori-Densetsu .wav

Pre-gap length 0:00:01.00

Peak level 73.6 %
Track quality 100.0 %
Test CRC 259EE865
Copy CRC 259EE865
Track not present in AccurateRip database
Copy OK

Track 5

Filename E:\Torrent\Out\NewAge\Lossless\Himekami 10+3 CD\7\05 - Toh'i-Oto .wav

Pre-gap length 0:00:01.49

Peak level 83.3 %
Track quality 100.0 %
Test CRC BDBA6D8C
Copy CRC BDBA6D8C
Track not present in AccurateRip database
Copy OK

Track 6

Filename E:\Torrent\Out\NewAge\Lossless\Himekami 10+3 CD\7\06 - Hokuroh-no-Mure .wav

Pre-gap length 0:00:02.50

Peak level 100.0 %
Track quality 100.0 %
Test CRC 0974E72C
Copy CRC 0974E72C
Track not present in AccurateRip database
Copy OK


1 track(s) could not be verified as accurate
5 track(s) not present in the AccurateRip database

No tracks could be verified as accurate
You may have a different pressing from the one(s) in the database

No errors occurred

End of status report


------------------------------------------------------------------------------------------------



Himekami - Setsufu (1987)
EAC | FLAC | Tracks (Cue&Log) ~ 233 Mb (incl 5%) | Mp3 (CBR320/Stereo) ~ 106 Mb (incl 5%) | Complete scans included
Genre: New Age, Progressive Electronic, Instrumental, Ethnic Fusion | Label: Pony Canyon | # PCCR-00098 | Time: 00:43:46


Tracklist:

01 - Sazame-Yuki
02 - Aoramu-Yuki-no-Utsuro-no-Naka-e
03 - Yuki-Hikaru
04 - Yuki-Zakura
05 - Hitohira-no-Yuki
06 - Yuki-No
07 - Secchuu-no-Hi
08 - Kazahana
09 - Mashiro-ni-Samuki-Kawa
10 - Awayuki


EAC log
Exact Audio Copy V0.99 prebeta 4 from 23. January 2008

EAC extraction logfile from 9. August 2009, 15:14

Himekami / Setsufu

Used drive : HL-DT-STDVDRAM GSA-H42N Adapter: 0 ID: 1

Read mode : Secure
Utilize accurate stream : Yes
Defeat audio cache : Yes
Make use of C2 pointers : No

Read offset correction : 667
Overread into Lead-In and Lead-Out : No
Fill up missing offset samples with silence : Yes
Delete leading and trailing silent blocks : No
Null samples used in CRC calculations : Yes
Used interface : Installed external ASPI interface
Gap handling : Appended to previous track

Used output format : User Defined Encoder
Selected bitrate : 1024 kBit/s
Quality : High
Add ID3 tag : No
Command line compressor : C:\Program Files\Exact Audio Copy\FLAC\FLAC.EXE
Additional command line options : -8 -V -T "ARTIST=%a" -T "TITLE=%t" -T "ALBUM=%g" -T "DATE=%y" -T "TRACKNUMBER=%n" -T "GENRE=%m" -T "COMMENT=%e" %s -o %d


TOC of the extracted CD

Track | Start | Length | Start sector | End sector
---------------------------------------------------------
1 | 0:00.00 | 4:01.37 | 0 | 18111
2 | 4:01.37 | 4:27.00 | 18112 | 38136
3 | 8:28.37 | 4:22.00 | 38137 | 57786
4 | 12:50.37 | 4:37.13 | 57787 | 78574
5 | 17:27.50 | 5:01.62 | 78575 | 101211
6 | 22:29.37 | 4:07.00 | 101212 | 119736
7 | 26:36.37 | 4:13.38 | 119737 | 138749
8 | 30:50.00 | 4:33.12 | 138750 | 159236
9 | 35:23.12 | 3:22.25 | 159237 | 174411
10 | 38:45.37 | 5:00.48 | 174412 | 196959


Track 1

Filename E:\Torrent\Out\NewAge\Lossless\Himekami 10+3 CD\8\01 - Sazame-Yuki .wav

Pre-gap length 0:00:02.00

Peak level 77.0 %
Track quality 100.0 %
Test CRC D2621FE1
Copy CRC D2621FE1
Track not present in AccurateRip database
Copy OK

Track 2

Filename E:\Torrent\Out\NewAge\Lossless\Himekami 10+3 CD\8\02 - Aoramu-Yuki-no-Utsuro-no-Naka-e .wav

Pre-gap length 0:00:01.89

Peak level 87.0 %
Track quality 100.0 %
Test CRC 2BD1695F
Copy CRC 2BD1695F
Track not present in AccurateRip database
Copy OK

Track 3

Filename E:\Torrent\Out\NewAge\Lossless\Himekami 10+3 CD\8\03 - Yuki-Hikaru .wav

Pre-gap length 0:00:02.13

Peak level 100.0 %
Track quality 99.9 %
Test CRC 353B071E
Copy CRC 353B071E
Track not present in AccurateRip database
Copy OK

Track 4

Filename E:\Torrent\Out\NewAge\Lossless\Himekami 10+3 CD\8\04 - Yuki-Zakura .wav

Pre-gap length 0:00:02.00

Peak level 70.7 %
Track quality 100.0 %
Test CRC 1C4D67F9
Copy CRC 1C4D67F9
Track not present in AccurateRip database
Copy OK

Track 5

Filename E:\Torrent\Out\NewAge\Lossless\Himekami 10+3 CD\8\05 - Hitohira-no-Yuki .wav

Pre-gap length 0:00:01.86

Peak level 100.0 %
Track quality 99.9 %
Test CRC 9F2FD73F
Copy CRC 9F2FD73F
Track not present in AccurateRip database
Copy OK

Track 6

Filename E:\Torrent\Out\NewAge\Lossless\Himekami 10+3 CD\8\06 - Yuki-No .wav

Pre-gap length 0:00:01.89

Peak level 100.0 %
Track quality 100.0 %
Test CRC 618F4001
Copy CRC 618F4001
Track not present in AccurateRip database
Copy OK

Track 7

Filename E:\Torrent\Out\NewAge\Lossless\Himekami 10+3 CD\8\07 - Secchuu-no-Hi .wav

Pre-gap length 0:00:02.00

Peak level 82.5 %
Track quality 100.0 %
Test CRC 5ACF8788
Copy CRC 5ACF8788
Track not present in AccurateRip database
Copy OK

Track 8

Filename E:\Torrent\Out\NewAge\Lossless\Himekami 10+3 CD\8\08 - Kazahana .wav

Pre-gap length 0:00:02.06

Peak level 100.0 %
Track quality 100.0 %
Test CRC 004D9242
Copy CRC 004D9242
Track not present in AccurateRip database
Copy OK

Track 9

Filename E:\Torrent\Out\NewAge\Lossless\Himekami 10+3 CD\8\09 - Mashiro-ni-Samuki-Kawa .wav

Pre-gap length 0:00:02.00

Peak level 74.8 %
Track quality 100.0 %
Test CRC 74B377E5
Copy CRC 74B377E5
Track not present in AccurateRip database
Copy OK

Track 10

Filename E:\Torrent\Out\NewAge\Lossless\Himekami 10+3 CD\8\10 - Awayuki .wav

Pre-gap length 0:00:02.02

Peak level 97.1 %
Track quality 100.0 %
Test CRC EE52B0B8
Copy CRC EE52B0B8
Track not present in AccurateRip database
Copy OK


None of the tracks are present in the AccurateRip database

No errors occurred

End of status report


------------------------------------------------------------------------------------------------



Himekami - Toki-wo-Mitsumete (1988)
EAC | FLAC | Tracks (Cue&Log) ~ 134 Mb (incl 5%) | Mp3 (CBR320/Stereo) ~ 55 Mb (incl 5%) | Complete scans included
Genre: New Age, Progressive Electronic, Instrumental, Ethnic Fusion | Label: Pony Canyon | # PCCR-00099 | Time: 00:23:12


Tracklist:

01 - Introduction =Toki-wo-Mitsumete=
02 - 1988
03 - Hi
04 - Shiroi-Hi-wa-Odoru
05 - Cairo
06 - Theme =Toki-wo-Mitsumete=


EAC log
Exact Audio Copy V0.99 prebeta 4 from 23. January 2008

EAC extraction logfile from 9. August 2009, 15:31

Himekami / Toki-wo-Mitsumete

Used drive : HL-DT-STDVDRAM GSA-H42N Adapter: 0 ID: 1

Read mode : Secure
Utilize accurate stream : Yes
Defeat audio cache : Yes
Make use of C2 pointers : No

Read offset correction : 667
Overread into Lead-In and Lead-Out : No
Fill up missing offset samples with silence : Yes
Delete leading and trailing silent blocks : No
Null samples used in CRC calculations : Yes
Used interface : Installed external ASPI interface
Gap handling : Appended to previous track

Used output format : User Defined Encoder
Selected bitrate : 1024 kBit/s
Quality : High
Add ID3 tag : No
Command line compressor : C:\Program Files\Exact Audio Copy\FLAC\FLAC.EXE
Additional command line options : -8 -V -T "ARTIST=%a" -T "TITLE=%t" -T "ALBUM=%g" -T "DATE=%y" -T "TRACKNUMBER=%n" -T "GENRE=%m" -T "COMMENT=%e" %s -o %d


TOC of the extracted CD

Track | Start | Length | Start sector | End sector
---------------------------------------------------------
1 | 0:00.00 | 1:03.32 | 0 | 4756
2 | 1:03.32 | 4:44.00 | 4757 | 26056
3 | 5:47.32 | 4:30.18 | 26057 | 46324
4 | 10:17.50 | 4:14.47 | 46325 | 65421
5 | 14:32.22 | 4:09.63 | 65422 | 84159
6 | 18:42.10 | 4:29.70 | 84160 | 104404


Track 1

Filename E:\Torrent\Out\NewAge\Lossless\Himekami 10+3 CD\9\01 - Introduction =Toki-wo-Mitsumete= .wav

Pre-gap length 0:00:02.00

Peak level 70.7 %
Track quality 99.8 %
Test CRC 66FF864D
Copy CRC 66FF864D
Track not present in AccurateRip database
Copy OK

Track 2

Filename E:\Torrent\Out\NewAge\Lossless\Himekami 10+3 CD\9\02 - 1988 .wav

Peak level 99.9 %
Track quality 100.0 %
Test CRC 6AD4EF03
Copy CRC 6AD4EF03
Track not present in AccurateRip database
Copy OK

Track 3

Filename E:\Torrent\Out\NewAge\Lossless\Himekami 10+3 CD\9\03 - Hi .wav

Pre-gap length 0:00:01.66

Peak level 77.5 %
Track quality 100.0 %
Test CRC DEBB64BA
Copy CRC DEBB64BA
Track not present in AccurateRip database
Copy OK

Track 4

Filename E:\Torrent\Out\NewAge\Lossless\Himekami 10+3 CD\9\04 - Shiroi-Hi-wa-Odoru .wav

Pre-gap length 0:00:04.00

Peak level 81.2 %
Track quality 100.0 %
Test CRC 2ED01DA0
Copy CRC 2ED01DA0
Track not present in AccurateRip database
Copy OK

Track 5

Filename E:\Torrent\Out\NewAge\Lossless\Himekami 10+3 CD\9\05 - Cairo .wav

Pre-gap length 0:00:01.13

Peak level 100.0 %
Track quality 100.0 %
Test CRC FFA4FAAE
Copy CRC FFA4FAAE
Track not present in AccurateRip database
Copy OK

Track 6

Filename E:\Torrent\Out\NewAge\Lossless\Himekami 10+3 CD\9\06 - Theme =Toki-wo-Mitsumete= .wav

Pre-gap length 0:00:03.24

Peak level 91.9 %
Track quality 100.0 %
Test CRC D7568D6B
Copy CRC D7568D6B
Track not present in AccurateRip database
Copy OK


None of the tracks are present in the AccurateRip database

No errors occurred

End of status report


------------------------------------------------------------------------------------------------



Himekami - Himekami Fudoki (1989)
EAC | FLAC | Tracks (Cue&Log) ~ 260 Mb (incl 5%) | Mp3 (CBR320/Stereo) ~ 127 Mb (incl 5%) | Complete scans included
Genre: New Age, Progressive Electronic, Instrumental, Ethnic Fusion | Label: Pony Canyon | # PCCR-00100 | Time: 00:51:14


Tracklist:

01 - Haru-Moe = Spring Growth , Seseragi-Seijoh
02 - Hakusan = White Mountain , Mizu,Shimiru
03 - Kaze-no-Tabi , Tomori-no-Koe
04 - Gogatsu-no-Hi-wa-Midori , Tase-Shohgakkoh-no-Gogo
05 - Sora-to-Kumo-to-Tomo-to , Shiroi-Nami
06 - Tsubasa , Mogari-Bue
07 - Aki-no-Futayo , Tohno-Monogatari
08 - Nakano-Bayashi-no-Yoru , Nokoribi
09 - Hoshi-wa-Meguri = Circling Stars , Yuki-Watari
10 - Mine-no-Shirayuki-Kieyarazu


EAC log
Exact Audio Copy V0.99 prebeta 4 from 23. January 2008

EAC extraction logfile from 9. August 2009, 12:10

Himekami / Himekami Fudoki

Used drive : HL-DT-STDVDRAM GSA-H42N Adapter: 0 ID: 1

Read mode : Secure
Utilize accurate stream : Yes
Defeat audio cache : Yes
Make use of C2 pointers : No

Read offset correction : 667
Overread into Lead-In and Lead-Out : No
Fill up missing offset samples with silence : Yes
Delete leading and trailing silent blocks : No
Null samples used in CRC calculations : Yes
Used interface : Installed external ASPI interface
Gap handling : Appended to previous track

Used output format : User Defined Encoder
Selected bitrate : 1024 kBit/s
Quality : High
Add ID3 tag : No
Command line compressor : C:\Program Files\Exact Audio Copy\FLAC\FLAC.EXE
Additional command line options : -8 -V -T "ARTIST=%a" -T "TITLE=%t" -T "ALBUM=%g" -T "DATE=%y" -T "TRACKNUMBER=%n" -T "GENRE=%m" -T "COMMENT=%e" %s -o %d


TOC of the extracted CD

Track | Start | Length | Start sector | End sector
---------------------------------------------------------
1 | 0:00.00 | 4:29.12 | 0 | 20186
2 | 4:29.12 | 6:10.33 | 20187 | 47969
3 | 10:39.45 | 6:29.12 | 47970 | 77156
4 | 17:08.57 | 4:18.65 | 77157 | 96571
5 | 21:27.47 | 4:55.00 | 96572 | 118696
6 | 26:22.47 | 4:31.60 | 118697 | 139081
7 | 30:54.32 | 4:49.65 | 139082 | 160821
8 | 35:44.22 | 5:32.38 | 160822 | 185759
9 | 41:16.60 | 5:53.52 | 185760 | 212286
10 | 47:10.37 | 4:04.08 | 212287 | 230594


Track 1

Filename E:\Torrent\Out\NewAge\Lossless\Himekami 10+3 CD\10\01 - Haru-Moe = Spring Growth , Seseragi-Seijoh .wav

Pre-gap length 0:00:02.00

Peak level 78.0 %
Track quality 100.0 %
Test CRC 80AF94ED
Copy CRC 80AF94ED
Track not present in AccurateRip database
Copy OK

Track 2

Filename E:\Torrent\Out\NewAge\Lossless\Himekami 10+3 CD\10\02 - Hakusan = White Mountain , Mizu,Shimiru .wav

Peak level 56.3 %
Track quality 100.0 %
Test CRC 8E36269E
Copy CRC 8E36269E
Track not present in AccurateRip database
Copy OK

Track 3

Filename E:\Torrent\Out\NewAge\Lossless\Himekami 10+3 CD\10\03 - Kaze-no-Tabi , Tomori-no-Koe .wav

Peak level 76.5 %
Track quality 99.9 %
Test CRC 58125FDD
Copy CRC 58125FDD
Track not present in AccurateRip database
Copy OK

Track 4

Filename E:\Torrent\Out\NewAge\Lossless\Himekami 10+3 CD\10\04 - Gogatsu-no-Hi-wa-Midori , Tase-Shohgakkoh-no-Gogo .wav

Peak level 50.2 %
Track quality 100.0 %
Test CRC 674450FB
Copy CRC 674450FB
Track not present in AccurateRip database
Copy OK

Track 5

Filename E:\Torrent\Out\NewAge\Lossless\Himekami 10+3 CD\10\05 - Sora-to-Kumo-to-Tomo-to , Shiroi-Nami .wav

Peak level 49.2 %
Track quality 100.0 %
Test CRC AAA95B27
Copy CRC AAA95B27
Track not present in AccurateRip database
Copy OK

Track 6

Filename E:\Torrent\Out\NewAge\Lossless\Himekami 10+3 CD\10\06 - Tsubasa , Mogari-Bue .wav

Peak level 58.6 %
Track quality 100.0 %
Test CRC D982E6E2
Copy CRC D982E6E2
Track not present in AccurateRip database
Copy OK

Track 7

Filename E:\Torrent\Out\NewAge\Lossless\Himekami 10+3 CD\10\07 - Aki-no-Futayo , Tohno-Monogatari .wav

Peak level 52.7 %
Track quality 99.9 %
Test CRC D01DC78E
Copy CRC D01DC78E
Track not present in AccurateRip database
Copy OK

Track 8

Filename E:\Torrent\Out\NewAge\Lossless\Himekami 10+3 CD\10\08 - Nakano-Bayashi-no-Yoru , Nokoribi .wav

Peak level 100.0 %
Track quality 100.0 %
Test CRC 24CC7C0C
Copy CRC 24CC7C0C
Track not present in AccurateRip database
Copy OK

Track 9

Filename E:\Torrent\Out\NewAge\Lossless\Himekami 10+3 CD\10\09 - Hoshi-wa-Meguri = Circling Stars , Yuki-Watari .wav

Peak level 91.5 %
Track quality 100.0 %
Test CRC A2748E91
Copy CRC A2748E91
Track not present in AccurateRip database
Copy OK

Track 10

Filename E:\Torrent\Out\NewAge\Lossless\Himekami 10+3 CD\10\10 - Mine-no-Shirayuki-Kieyarazu .wav

Peak level 63.7 %
Track quality 99.9 %
Test CRC 44D5AA8D
Copy CRC 44D5AA8D
Track not present in AccurateRip database
Copy OK


None of the tracks are present in the AccurateRip database

No errors occurred

End of status report



All thanks to latzi for lossless

->> Welcome to Designol Blog <<-


Linklist for download from FilePost

http://filepost.com/files/da2c5fa9/1981.Himekami.Sensation.Oku.no.Hosomishi.Flac.rar
http://filepost.com/files/cmbmabf6/1981.Himekami.Sensation.Oku.no.Hosomishi.MP3.rar

http://filepost.com/files/bm56b9c5/1982.Himekami.Sensation.Himekami.Flac.rar
http://filepost.com/files/mfdf8382/1982.Himekami.Sensation.Himekami.MP3.rar

http://filepost.com/files/2a7b9822/1982.Himekami.Sensation.Tohno.Flac.rar
http://filepost.com/files/fd631252/1982.Himekami.Sensation.Tohno.MP3.rar

http://filepost.com/files/6f4ebf27/1983.Himekami.Sensation.Himekami.Densetsu.Flac.rar
http://filepost.com/files/bd3e9cem/1983.Himekami.Sensation.Homekami.Densetsu.MP3.rar

http://filepost.com/files/2f277emb/1984.Himekami.with.YAS.KAZ.Mahoroba.Flac.rar
http://filepost.com/files/275m868b/1984.Himekami.with.YAS.KAZ.Mahoroba.MP3.rar

http://filepost.com/files/7a89db4b/1985.Himekami.with.YAS.KAZ.Kaidoh.Flac.rar
http://filepost.com/files/f8dae6e9/1985.Himekami.with.YAS.KAZ.Kaidoh.MP3.rar

http://filepost.com/files/ea571497/1986.Himekami.Hokuten.Gensoh.FLAC.rar
http://filepost.com/files/m99cm279/1986.Himekami.Hokuten.Gensoh.MP3.rar

http://filepost.com/files/58f34a61/1987.Himekami.Setsufu.Flac.rar
http://filepost.com/files/f6m7b154/1987.Himekami.Setsufu.Mp3.rar

http://filepost.com/files/c2cbab9m/1988.Himekami.Toki.wo.Mitsumete.Flac.rar
http://filepost.com/files/9md34m77/1988.Himekami.Toki.wo.Mitsumete.MP3.rar

http://filepost.com/files/cff3e52c/1989.Himekami.Himekami.Fudoki.Flac.rar
http://filepost.com/files/7a68af49/1989.Himekami.Himekami.Fudoki.MP3.rar


ADVERTISING » Click here to download Ebooks/Magazines for free « ADVERTISING


Posted By: alibibi56 Date: 09 Sep 2011 21:46:48
Thank you for posting !
I'll discover Himekami !
Posted By: fuzul Date: 10 Sep 2011 19:46:40
Thanks so billions..from Medina!
Posted By: Delerium Date: 11 Sep 2011 08:50:12

10x 4 Sharing :)

Del
Posted By: atesilter Date: 19 Sep 2011 15:28:57
Thank you so much my friend...
Posted By: Charly61 Date: 07 Oct 2011 20:37:40
Great post!... thanks a lot!!!
Posted By: Scorpion40 Date: 06 Aug 2012 12:52:25
Thanks a Bunch! / Muchísimas Gracias
Posted By: deansamuel Date: 04 Sep 2012 21:45:28
Thank you very much
Posted By: denrock Date: 09 May 2013 00:58:12
thanks, this is amazing.