Loading...

Timeless - Tribute To Hank Williams (2001)

Posted By : rotyguuw | Date : 02 Sep 2010 05:30:57 | Comments : 3 |
|



Timeless - Tribute To Hank Williams (2001)
1CD | EAC Rip | FLAC(tracks) + CUE + LOG | Cover Scans included | 00:43:19 | 234 MB
Genre: Country | Label: Lost Highway | Release date: September 25, 2001

Like 1999's tribute to Gram Parsons, Return of the Grievous Angel, this successful collection revives the tired "tribute" concept and applies it in homage to a key figure in country music. Interpreting songs from across Hank Williams's short and troubled career, a range of high-profile artists use different approaches with equally gratifying results. Tom Petty, Sheryl Crow, and Hank Williams III play familiar songs with traditional arrangements (Ms. Crow's yodel is an eye opener); Beck, Mark Knopfler, and Keb' Mo' stay closer to their own idioms. Keith Richards's reedy vocal makes "You Win Again" all his own, and Bob Dylan, who has only rarely lent his services to these sorts of projects, leads his touring band through a blues shuffle on "I Can't Get You Off of My Mind." The estimable Lost Highway label has assembled an illustrious cast to sing the praises of the artist who inspired its name, and in doing so it has created a far better testament to its musical mindset than can ever be captured in the term Americana. --Rob Stewart

Tracklist:
1. I Can not Get You Off My Mind - Bob Dylan
2. Long Gone Lonesome Blues - Sheryl Crow
3. I'm So Lonesome I Could Cry - Keb 'Mo'
4. Your Cheatin 'Heart - Beck
5. Lost on the River - Mark Knopfler / Emmylou Harris
6. You're Gonna Change (Or I'm Gonna Leave) - Tom Petty
7. You Win Again - Keith Richards
8. Alone and Forsaken - Emmylou Harris / Mark Knopfler
9. I'm a Long Gone Daddy - Hank Williams III
10. Lovesick Blues - Ryan Adams
11. Cold, Heart Cold - Lucinda Williams
12. I Dreamed About Mama Last Night - Johnny Cash
Log
Exact Audio Copy V0.99 prebeta 4 from 23. January 2008

EAC extraction logfile from 10. May 2009, 20:11

Various / Timeless: A Tribute To Hank Williams

Used drive : HL-DT-STDVDRAM GH15F Adapter: 1 ID: 0

Read mode : Secure
Utilize accurate stream : Yes
Defeat audio cache : Yes
Make use of C2 pointers : No

Read offset correction : 667
Overread into Lead-In and Lead-Out : No
Fill up missing offset samples with silence : Yes
Delete leading and trailing silent blocks : No
Null samples used in CRC calculations : Yes
Used interface : Native Win32 interface for Win NT & 2000
Gap handling : Appended to previous track

Used output format : Internal WAV Routines
Sample format : 44.100 Hz; 16 Bit; Stereo


TOC of the extracted CD

Track | Start | Length | Start sector | End sector
---------------------------------------------------------
1 | 0:00.32 | 2:57.00 | 32 | 13306
2 | 2:57.32 | 2:56.13 | 13307 | 26519
3 | 5:53.45 | 4:01.47 | 26520 | 44641
4 | 9:55.17 | 3:41.63 | 44642 | 61279
5 | 13:37.05 | 3:03.60 | 61280 | 75064
6 | 16:40.65 | 3:11.37 | 75065 | 89426
7 | 19:52.27 | 4:30.38 | 89427 | 109714
8 | 24:22.65 | 3:32.02 | 109715 | 125616
9 | 27:54.67 | 3:37.20 | 125617 | 141911
10 | 31:32.12 | 3:23.38 | 141912 | 157174
11 | 34:55.50 | 5:08.22 | 157175 | 180296
12 | 40:03.72 | 3:13.50 | 180297 | 194821


Track 1

Filename J:\Eac Rips\Various - 2001 - Timeless- A Tribute To Hank Williams\01 - I Can't Get You Off Of My Mind.wav

Pre-gap length 0:00:02.42

Peak level 99.3 %
Track quality 99.9 %
Test CRC D592BE87
Copy CRC D592BE87
Accurately ripped (confidence 33) [D00386E4]
Copy OK

Track 2

Filename J:\Eac Rips\Various - 2001 - Timeless- A Tribute To Hank Williams\02 - Long Gone Lonesome Blues.wav

Pre-gap length 0:00:01.20

Peak level 99.9 %
Track quality 100.0 %
Test CRC 733F7714
Copy CRC 733F7714
Accurately ripped (confidence 33) [96C06EFB]
Copy OK

Track 3

Filename J:\Eac Rips\Various - 2001 - Timeless- A Tribute To Hank Williams\03 - I'm So Lonesome I Could Cry.wav

Pre-gap length 0:00:01.30

Peak level 98.8 %
Track quality 100.0 %
Test CRC 0AC131C9
Copy CRC 0AC131C9
Accurately ripped (confidence 33) [DA3A9267]
Copy OK

Track 4

Filename J:\Eac Rips\Various - 2001 - Timeless- A Tribute To Hank Williams\04 - Your Cheatin' Heart.wav

Pre-gap length 0:00:02.36

Peak level 98.8 %
Track quality 99.9 %
Test CRC F2AA034A
Copy CRC F2AA034A
Accurately ripped (confidence 32) [D4CBD4BD]
Copy OK

Track 5

Filename J:\Eac Rips\Various - 2001 - Timeless- A Tribute To Hank Williams\05 - Lost On The River (with Emmylou Harris).wav

Peak level 96.7 %
Track quality 100.0 %
Test CRC EA00E4A8
Copy CRC EA00E4A8
Accurately ripped (confidence 32) [3C961786]
Copy OK

Track 6

Filename J:\Eac Rips\Various - 2001 - Timeless- A Tribute To Hank Williams\06 - You're Gonna Change (Or I'm Gonna Leave).wav

Peak level 100.0 %
Track quality 100.0 %
Test CRC 004EBCBB
Copy CRC 004EBCBB
Accurately ripped (confidence 33) [1BBE1F4A]
Copy OK

Track 7

Filename J:\Eac Rips\Various - 2001 - Timeless- A Tribute To Hank Williams\07 - You Win Again.wav

Pre-gap length 0:00:01.96

Peak level 99.9 %
Track quality 100.0 %
Test CRC 2F04DC9B
Copy CRC 2F04DC9B
Accurately ripped (confidence 33) [AC323821]
Copy OK

Track 8

Filename J:\Eac Rips\Various - 2001 - Timeless- A Tribute To Hank Williams\08 - Alone And Forsaken (with Mark Knopfler & His Band).wav

Peak level 94.1 %
Track quality 100.0 %
Test CRC 0B7A1E7C
Copy CRC 0B7A1E7C
Accurately ripped (confidence 33) [37E75570]
Copy OK

Track 9

Filename J:\Eac Rips\Various - 2001 - Timeless- A Tribute To Hank Williams\09 - I'm A Long Gone Daddy.wav

Peak level 99.9 %
Track quality 100.0 %
Test CRC 41F0A796
Copy CRC 41F0A796
Accurately ripped (confidence 33) [2EE0D43D]
Copy OK

Track 10

Filename J:\Eac Rips\Various - 2001 - Timeless- A Tribute To Hank Williams\10 - Lovesick Blues.wav

Peak level 99.7 %
Track quality 100.0 %
Test CRC 5478032F
Copy CRC 5478032F
Accurately ripped (confidence 33) [2E38CD7B]
Copy OK

Track 11

Filename J:\Eac Rips\Various - 2001 - Timeless- A Tribute To Hank Williams\11 - Cold, Cold Heart.wav

Peak level 99.9 %
Track quality 100.0 %
Test CRC A3E7E2FC
Copy CRC A3E7E2FC
Accurately ripped (confidence 33) [253FCB99]
Copy OK

Track 12

Filename J:\Eac Rips\Various - 2001 - Timeless- A Tribute To Hank Williams\12 - I Dreamed About Mama Last Night.wav

Peak level 87.4 %
Track quality 100.0 %
Test CRC 41F486DA
Copy CRC 41F486DA
Accurately ripped (confidence 33) [44BF46FC]
Copy OK


All tracks accurately ripped

No errors occurred

End of status report




ADVERTISING » Free Fast Download! « ADVERTISING


Posted By: SteveJobs Date: 02 Sep 2010 06:32:23
Thank you very much!
Posted By: Minimme Date: 04 Nov 2010 11:40:00
thanks for this!
Posted By: diddlycrap Date: 19 Aug 2011 09:45:28
Thanks a lot for sharing...