Loading...

VA - Romantic Collection - Italian (2001)

Posted By : L@ter | Date : 29 Sep 2010 23:30:15 | Comments : 1 |
|



VA - Romantic Collection - Italian (2001)
EAC Rip | FLAC, IMG+CUE, LOG | 442 MB | 71,00 Min | Front Cover
Label: Moonrise | Italian Pop | Compilation | 19 tracks | RAR 3% Rec.

Tracklist

01. Toto Cutugno - L`Italiano
02. Matia Bazar - Solo Tu
03. Adriano Celentano - Il Tempo Se Ne Va
04. Umberto Tozzi - Tu
05. Nino Rotta & Carmile Copolla - Godfather
06. Al Bano & Romina Power - Tu Soltanto Tu (Mi Hai Fatto Innamorare)
07. Eros Ramazzotti - A Mezza Via
08. Ricchi E Poveri - Come Vorrei
09. Riccardo Fogli - Quando Nascero Di Nuovo
10. Nini Rosso - La Ballata Della Tromba
11. Gianni Morandi - Go-Kart Twist
12. Stella Carnacina - Rosso Sera
13. Pavarotti - Mamma
14. Ennio Morricone - Frantic
15. Gazebo - Masterpiece
16. Amanda Lear - Ragazzino
17. Pupo - Sudinoi
18. Nino D`Angelo - Vai
19. Symphonic Rock Orchestra - L`Italiano

Eac Log

Exact Audio Copy V0.99 prebeta 5 from 4. May 2009

EAC extraction logfile from 29. September 2010, 23:56

Various / Romantic Collection - Italian

Used drive : HL-DT-STDVD-RAM GH22NP20 Adapter: 0 ID: 0

Read mode : Secure
Utilize accurate stream : Yes
Defeat audio cache : Yes
Make use of C2 pointers : No

Read offset correction : 102
Overread into Lead-In and Lead-Out : No
Fill up missing offset samples with silence : Yes
Delete leading and trailing silent blocks : No
Null samples used in CRC calculations : Yes
Used interface : Native Win32 interface for Win NT & 2000

Used output format : User Defined Encoder
Selected bitrate : 768 kBit/s
Quality : High
Add ID3 tag : No
Command line compressor : C:\Program Files\Exact Audio Copy\FLAC\FLAC.EXE
Additional command line options : -6 -V -T "ARTIST=%a" -T "TITLE=%t" -T "ALBUM=%g" -T "DATE=%y" -T "TRACKNUMBER=%n" -T "GENRE=%m" -T "COMMENT=%e" %s -o %d


TOC of the extracted CD

Track | Start | Length | Start sector | End sector
---------------------------------------------------------
1 | 0:00.00 | 3:52.38 | 0 | 17437
2 | 3:52.38 | 3:28.07 | 17438 | 33044
3 | 7:20.45 | 3:51.23 | 33045 | 50392
4 | 11:11.68 | 4:11.48 | 50393 | 69265
5 | 15:23.41 | 2:43.38 | 69266 | 81528
6 | 18:07.04 | 3:41.04 | 81529 | 98107
7 | 21:48.08 | 5:48.38 | 98108 | 124245
8 | 27:36.46 | 2:57.37 | 124246 | 137557
9 | 30:34.08 | 3:37.44 | 137558 | 153876
10 | 34:11.52 | 2:59.47 | 153877 | 167348
11 | 37:11.24 | 2:30.02 | 167349 | 178600
12 | 39:41.26 | 3:23.65 | 178601 | 193890
13 | 43:05.16 | 3:33.03 | 193891 | 209868
14 | 46:38.19 | 3:43.49 | 209869 | 226642
15 | 50:21.68 | 4:15.31 | 226643 | 245798
16 | 54:37.24 | 4:21.23 | 245799 | 265396
17 | 58:58.47 | 3:17.70 | 265397 | 280241
18 | 62:16.42 | 3:53.27 | 280242 | 297743
19 | 66:09.69 | 4:50.39 | 297744 | 319532


Range status and errors

Selected range

Filename C:\Various - Romantic Collection - Italian.wav

Peak level 100.0 %
Range quality 100.0 %
Copy CRC B8406084
Copy OK

No errors occurred

End of status report

Cue Sheet

REM GENRE "Italian Pop"
REM DATE 2001
REM DISCID 0910A413
REM COMMENT "ExactAudioCopy v0.99pb5"
PERFORMER "Various"
TITLE "Romantic Collection - Italian"
FILE "Various - Romantic Collection - Italian.flac" WAVE
TRACK 01 AUDIO
TITLE "Toto Cutugno - L`Italiano"
PERFORMER "Toto Cutugno - L`Italiano"
INDEX 01 00:00:00
TRACK 02 AUDIO
TITLE "Matia Bazar - Solo Tu"
PERFORMER "Matia Bazar - Solo Tu"
INDEX 01 03:52:38
TRACK 03 AUDIO
TITLE "Adriano Celentano - Il Tempo Se Ne Va"
PERFORMER "Adriano Celentano - Il Tempo Se Ne Va"
INDEX 01 07:20:45
TRACK 04 AUDIO
TITLE "Umberto Tozzi - Tu"
PERFORMER "Umberto Tozzi - Tu"
INDEX 01 11:11:68
TRACK 05 AUDIO
TITLE "Nino Rotta & Carmile Copolla - Godfather"
PERFORMER "Nino Rotta & Carmile Copolla - Godfather"
INDEX 01 15:23:41
TRACK 06 AUDIO
TITLE "Al Bano & Romina Power - Tu Soltanto Tu (Mi Hai Fatto Innamorare)"
PERFORMER "Al Bano & Romina Power - Tu Soltanto Tu (Mi Hai Fatto Innamorare)"
INDEX 01 18:07:04
TRACK 07 AUDIO
TITLE "Eros Ramazzotti - A Mezza Via"
PERFORMER "Eros Ramazzotti - A Mezza Via"
INDEX 01 21:48:08
TRACK 08 AUDIO
TITLE "Ricchi E Poveri - Come Vorrei"
PERFORMER "Ricchi E Poveri - Come Vorrei"
INDEX 01 27:36:46
TRACK 09 AUDIO
TITLE "Riccardo Fogli - Quando Nascero Di Nuovo"
PERFORMER "Riccardo Fogli - Quando Nascero Di Nuovo"
INDEX 01 30:34:08
TRACK 10 AUDIO
TITLE "Nini Rosso - La Ballata Della Tromba"
PERFORMER "Nini Rosso - La Ballata Della Tromba"
INDEX 01 34:11:52
TRACK 11 AUDIO
TITLE "Gianni Morandi - Go-Kart Twist"
PERFORMER "Gianni Morandi - Go-Kart Twist"
INDEX 01 37:11:24
TRACK 12 AUDIO
TITLE "Stella Carnacina - Rosso Sera"
PERFORMER "Stella Carnacina - Rosso Sera"
INDEX 01 39:41:26
TRACK 13 AUDIO
TITLE "Pavarotti - Mamma"
PERFORMER "Pavarotti - Mamma"
INDEX 01 43:05:16
TRACK 14 AUDIO
TITLE "Ennio Morricone - Frantic"
PERFORMER "Ennio Morricone - Frantic"
INDEX 01 46:38:19
TRACK 15 AUDIO
TITLE "Gazebo - Masterpiece"
PERFORMER "Gazebo - Masterpiece"
INDEX 01 50:21:68
TRACK 16 AUDIO
TITLE "Amanda Lear - Ragazzino"
PERFORMER "Amanda Lear - Ragazzino"
INDEX 01 54:37:24
TRACK 17 AUDIO
TITLE "Pupo - Sudinoi"
PERFORMER "Pupo - Sudinoi"
INDEX 01 58:58:47
TRACK 18 AUDIO
TITLE "Nino D`Angelo - Vai"
PERFORMER "Nino D`Angelo - Vai"
INDEX 01 62:16:42
TRACK 19 AUDIO
TITLE "Symphonic Rock Orchestra - L`Italiano"
PERFORMER "Symphonic Rock Orchestra - L`Italiano"
INDEX 01 66:09:69



ADVERTISING » Free Fast Download! « ADVERTISING


Posted By: peachfuzz Date: 30 Sep 2010 00:26:35
I hope the songs are just as erotic as the cover. ;)