Loading...

Via Crucis (Nuria Rial, Philippe Jaroussky, Christina Pluhar)

Posted By : ArlegZ | Date : 16 May 2010 14:49:02 | Comments : 7 |
|



Via Crucis (Nuria Rial, Philippe Jaroussky, Christina Pluhar)
Baroque | 1 CD | EAC | APE+CUE, LOG | Scans | TT 70:35 | 353 MB
BARBARA FURTUNA, L’ARPEGGIATA, Christina Pluhar
Released: 2010 | Label: Virgin

Performer:
Nuria Rial - soprano
Philippe Jaroussky – countertenor
BARBARA FURTUNA
L’ARPEGGIATA
Christina Pluhar - direction

Tracklisting:
1.Heinrich Ignaz Franz von Biber: L'Annonciation
2.Anonyme: Ninna nanna alla Napoletana
3.Traditionnel/Merlandi/Guissani: Maria (sopra la Carpinese)
4.Tarquinio Merula: Hor ch'e tempo di dormine
5.Heinrich Ignaz Franz von Biber: L'Aria
6.Giovanni Legrenzi: Lumi, potete piangere
7.Traditionnel corse: Suda sangue
8.Benedetto Ferrari: Queste pungente spine
9.Luigi Rossi: Voglio morire
10.Traditionnel corse: Stabat mater
11.Giovanni Felice Sances: Stabat mater
12.Maurizio Cazzati: Passacaglia
13.Roccu Mambrini/Toni Casalonga: Lamentu di Ghjesu (sopra la Follia)
14.Tarquinio Merula: Ciaccona
15.Claudio Monteverdi: Laudate Dominum
16.Lorenzo Allegri: Canario
17.Anonyme: Ciaccona di Paradiso e dell'Inferno
18.Enzo Gragnaniello: 'Stu Criato

LOG log:
Exact Audio Copy V0.99 prebeta 4 from 23. January 2008

EAC extraction logfile from 16. May 2010, 12:47

Nuria Rial, Philippe Jaroussky, Christina Pluhar / Via Crucis

Used drive : Optiarc DVD RW AD-7173A Adapter: 1 ID: 1

Read mode : Secure
Utilize accurate stream : Yes
Defeat audio cache : Yes
Make use of C2 pointers : No

Read offset correction : 48
Overread into Lead-In and Lead-Out : No
Fill up missing offset samples with silence : Yes
Delete leading and trailing silent blocks : No
Null samples used in CRC calculations : Yes
Used interface : Native Win32 interface for Win NT & 2000

Used output format : Internal WAV Routines
Sample format : 44.100 Hz; 16 Bit; Stereo


TOC of the extracted CD

Track | Start | Length | Start sector | End sector
---------------------------------------------------------
1 | 0:00.00 | 2:32.33 | 0 | 11432
2 | 2:32.33 | 4:40.09 | 11433 | 32441
3 | 7:12.42 | 5:25.20 | 32442 | 56836
4 | 12:37.62 | 7:44.34 | 56837 | 91670
5 | 20:22.21 | 1:51.52 | 91671 | 100047
6 | 22:13.73 | 3:12.27 | 100048 | 114474
7 | 25:26.25 | 1:55.51 | 114475 | 123150
8 | 27:22.01 | 7:35.62 | 123151 | 157337
9 | 34:57.63 | 1:58.70 | 157338 | 166257
10 | 36:56.58 | 2:21.56 | 166258 | 176888
11 | 39:18.39 | 7:02.48 | 176889 | 208586
12 | 46:21.12 | 3:35.09 | 208587 | 224720
13 | 49:56.21 | 4:19.26 | 224721 | 244171
14 | 54:15.47 | 2:45.67 | 244172 | 256613
15 | 57:01.39 | 4:40.17 | 256614 | 277630
16 | 61:41.56 | 2:15.23 | 277631 | 287778
17 | 63:57.04 | 3:16.74 | 287779 | 302552
18 | 67:14.03 | 3:23.36 | 302553 | 317813


Range status and errors

Selected range

Filename C:\Documents and Settings\Christina Pluhar - Via Crucis.wav

Peak level 94.2 %
Range quality 99.9 %
Copy CRC A810FB9D
Copy OK

No errors occurred

End of status report

Download album VCRJP:

ADVERTISING » Click here to download Ebooks/Magazines for free « ADVERTISING


Posted By: zinest Date: 16 May 2010 16:49:42
Thank you ever so much!
Posted By: Piterets Date: 17 May 2010 04:14:50
Thanks for lossless, it was offered recently in mp3. Very nice collection!
Posted By: cdb Date: 26 May 2010 13:47:20
Thanks very much !!
Posted By: Xomjak Date: 11 Aug 2010 19:13:27
Many thanks!
Posted By: Boccaccio Date: 09 Oct 2010 19:40:15
Unfortunately, the rapidshare link expired :-(
Posted By: Prumnopitys Date: 12 Dec 2010 23:02:57
Link still working: thank you.
Posted By: kirnhuber Date: 14 Mar 2014 18:41:21
Link still(!) working.

Thanks!