Loading...

John Zorn - Cartoon/S&M (2000)

Posted By : mook45 | Date : 09 Apr 2010 23:43:29 | Comments : 8 |
|



John Zorn - Cartoon/S&M (2000)
EAC | FLAC IMG,CUE+LOG = MB | 400 dpi Scans
Modern Composition | Label: Tzadik - TZ7330-2| FSo/FSe




Two sides of Zorn titled befittingly: the harrowing S&M and the more homourous, cut-up styled Cartoon.

Track listing
Disc 1

1. Cat O' Nine Tails
2. Carny
3. For Your Eyes Only
4. Kol Nidre

Disc 2

1. Variations
2. Sonatas
3. Manifesto
4. Fanfare
5. Meditation
6. Rondo
7. Romance
8. Blossoms
9. Fantasy
10. Folio
11. Nocturne
12. Etude
13. Prelude
14. Music For Children
15. Memento Mori
16. Kol Nidre

CD1 LOG
Exact Audio Copy V0.99 prebeta 5 from 4. May 2009

EAC extraction logfile from 8. April 2010, 21:18

John Zorn / Cartoon

Used drive : HP DVD Writer 1040r Adapter: 1 ID: 0

Read mode : Secure
Utilize accurate stream : Yes
Defeat audio cache : Yes
Make use of C2 pointers : No

Read offset correction : 6
Overread into Lead-In and Lead-Out : No
Fill up missing offset samples with silence : Yes
Delete leading and trailing silent blocks : No
Null samples used in CRC calculations : Yes
Used interface : Native Win32 interface for Win NT & 2000

Used output format : User Defined Encoder
Selected bitrate : 1024 kBit/s
Quality : High
Add ID3 tag : No
Command line compressor : C:\Program Files\Exact Audio Copy\FLAC\FLAC.EXE
Additional command line options : -5 -V -T "ARTIST=%a" -T "TITLE=%t" -T "ALBUM=%g" -T "DATE=%y" -T "TRACKNUMBER=%n" -T "GENRE=%m" -T "COMMENT=EAC Flac 1.1.2 -5" %s


TOC of the extracted CD

Track | Start | Length | Start sector | End sector
---------------------------------------------------------
1 | 0:00.00 | 15:35.47 | 0 | 70171
2 | 15:35.47 | 12:35.30 | 70172 | 126826
3 | 28:11.02 | 13:02.35 | 126827 | 185511
4 | 41:13.37 | 7:55.65 | 185512 | 221201


Range status and errors

Selected range

Filename C:\Users\Mike3\Desktop\John Zorn - Cartoon & S&M\Cartoon\John Zorn - Cartoon.wav

Peak level 99.7 %
Range quality 100.0 %
Copy CRC 5A898EDF
Copy OK

No errors occurred


AccurateRip summary

Track 1 accurately ripped (confidence 1) [8212EDAB]
Track 2 accurately ripped (confidence 1) [0144EC8A]
Track 3 accurately ripped (confidence 1) [F08D79AF]
Track 4 accurately ripped (confidence 1) [AD914EC3]

All tracks accurately ripped

End of status report


CD2 LOG
Exact Audio Copy V0.99 prebeta 5 from 4. May 2009

EAC extraction logfile from 8. April 2010, 21:54

John Zorn / S&M

Used drive : HP DVD Writer 1040r Adapter: 1 ID: 0

Read mode : Secure
Utilize accurate stream : Yes
Defeat audio cache : Yes
Make use of C2 pointers : No

Read offset correction : 6
Overread into Lead-In and Lead-Out : No
Fill up missing offset samples with silence : Yes
Delete leading and trailing silent blocks : No
Null samples used in CRC calculations : Yes
Used interface : Native Win32 interface for Win NT & 2000

Used output format : User Defined Encoder
Selected bitrate : 1024 kBit/s
Quality : High
Add ID3 tag : No
Command line compressor : C:\Program Files\Exact Audio Copy\FLAC\FLAC.EXE
Additional command line options : -5 -V -T "ARTIST=%a" -T "TITLE=%t" -T "ALBUM=%g" -T "DATE=%y" -T "TRACKNUMBER=%n" -T "GENRE=%m" -T "COMMENT=EAC Flac 1.1.2 -5" %s


TOC of the extracted CD

Track | Start | Length | Start sector | End sector
---------------------------------------------------------
1 | 0:00.00 | 1:05.00 | 0 | 4874
2 | 1:05.00 | 0:40.42 | 4875 | 7916
3 | 1:45.42 | 0:45.43 | 7917 | 11334
4 | 2:31.10 | 0:57.70 | 11335 | 15679
5 | 3:29.05 | 0:45.70 | 15680 | 19124
6 | 4:15.00 | 0:55.70 | 19125 | 23319
7 | 5:10.70 | 0:27.70 | 23320 | 25414
8 | 5:38.65 | 1:09.35 | 25415 | 30624
9 | 6:48.25 | 0:51.32 | 30625 | 34481
10 | 7:39.57 | 1:14.55 | 34482 | 40086
11 | 8:54.37 | 1:32.25 | 40087 | 47011
12 | 10:26.62 | 0:56.38 | 47012 | 51249
13 | 11:23.25 | 1:28.00 | 51250 | 57849
14 | 12:51.25 | 14:29.45 | 57850 | 123069
15 | 27:20.70 | 26:28.10 | 123070 | 242179
16 | 53:49.05 | 6:47.62 | 242180 | 272766


Range status and errors

Selected range

Filename C:\Users\Mike3\Desktop\John Zorn - Cartoon & S&M\S&M\John Zorn - S&M.wav

Peak level 98.8 %
Range quality 100.0 %
Copy CRC 666B158C
Copy OK

No errors occurred


AccurateRip summary

Track 1 accurately ripped (confidence 1) [2FB66C9B]
Track 2 accurately ripped (confidence 1) [44E9E721]
Track 3 accurately ripped (confidence 1) [5297DE49]
Track 4 accurately ripped (confidence 1) [D0AFE619]
Track 5 accurately ripped (confidence 1) [37C81E24]
Track 6 accurately ripped (confidence 1) [C13E8A11]
Track 7 accurately ripped (confidence 1) [F6EF4D11]
Track 8 accurately ripped (confidence 1) [0CE2B67E]
Track 9 accurately ripped (confidence 1) [317FD418]
Track 10 accurately ripped (confidence 1) [C36D8995]
Track 11 accurately ripped (confidence 1) [0ECE8B5E]
Track 12 accurately ripped (confidence 1) [856DDE39]
Track 13 accurately ripped (confidence 1) [F3E990DF]
Track 14 accurately ripped (confidence 1) [598AED6E]
Track 15 accurately ripped (confidence 1) [58124FCE]
Track 16 accurately ripped (confidence 1) [922C118C]

All tracks accurately ripped

End of status report


Files
Flac 520 Kbps ABR = 408MB
400 DPI PDF Scans = 33MB

Flac

http://www.filesonic.com/file/26746359/JZ.C_S_M.part1.rar
http://www.filesonic.com/file/26746489/JZ.C_S_M.part2.rar
http://www.filesonic.com/file/26746227/JZ.C_S_M.part3.rar

Scans

http://www.filesonic.com/file/26746281/JZ.C_S_M_S_.rar

Flac

http://www.fileserve.com/file/pjpDUjx/JZ.C_S_M.part1.rar
http://www.fileserve.com/file/QApeJku/JZ.C_S_M.part2.rar
http://www.fileserve.com/file/gNdbP7T/JZ.C_S_M.part3.rar

Scans

http://www.fileserve.com/file/bS5qZNr/JZ.C_S_M_S_.rar

No mirrors

ADVERTISING » Click here to download Ebooks/Magazines for free « ADVERTISING


Posted By: dangdang Date: 10 Apr 2010 00:12:50
Thank you very much !
As far as I know, most Zorn's works as composer have long been available as 128 kbps (or less).
Additionally, it's not likely to be widely known that Zorn is one of a few American composers whose music sounds like that by European.
I strongly regret to have left quite a few Zorn (and people around him) CDs in my hometown... I haven't (and of course, will not) sold them tho.
Posted By: peachfuzz Date: 10 Apr 2010 04:42:41
Awesome post. Although I can't complain much about all your wonderful dub/funk posts (after all, who doesn't like funk?), I believe this one is by far the best I've seen to date from you. Looking forward to many great posts like these. Thanks for sharing!
Posted By: old_pioneer Date: 10 Apr 2010 18:37:17
thanks!!!!
Posted By: itsartolie Date: 11 Apr 2010 10:33:46
brilliant, many thanks, you might want to check my Zorn Tzadik posts while they're still there.
Posted By: abeld Date: 13 May 2010 09:27:19
Masada friends, take a closer look to this older avax post (comments):
http://avaxhome.ws/music/zorn_masada.html
Posted By: loomer Date: 27 Sep 2010 08:27:36
Excellent work! Thank you very much!
Posted By: grasprelease Date: 31 May 2011 08:24:12
Late thanks for this mook, and extra thanks for the scans of the lovely booklet.
Posted By: strange_dream Date: 19 Oct 2011 12:17:12
Thanks