Loading...

Nicole Cabell - Soprano (2007)

Posted By : luckburz | Date : 20 Aug 2012 07:16:02 | Comments : 3 |
|



Nicole Cabell - Soprano
London Philharmonic Orchestra / Andrew Davis
EAC+LOG+CUE | FLAC: 259 MB | MP3 CBR 320: 141 MB | Full Artwork | 5% Recovery Info
Label/Cat#: Decca # 475 7661 | Country/Year: Europe 2007
Genre: CLassical | Style: Vocal, Opera

MD5 [X] CUE [X] LOG [X] INFO TEXT [X] ARTWORK [X]

webfind [] selfrip [X]





EAC LOG
Exact Audio Copy V1.0 beta 2 from 29. April 2011

EAC extraction logfile from 1. June 2012, 21:37

Nicole Cabell, LSO, Davis / Soprano

Used drive : PIONEER BD-RW BDR-206 Adapter: 2 ID: 3

Read mode : Secure
Utilize accurate stream : Yes
Defeat audio cache : Yes
Make use of C2 pointers : No

Read offset correction : 667
Overread into Lead-In and Lead-Out : No
Fill up missing offset samples with silence : Yes
Delete leading and trailing silent blocks : No
Null samples used in CRC calculations : Yes
Used interface : Native Win32 interface for Win NT & 2000

Used output format : User Defined Encoder
Selected bitrate : 896 kBit/s
Quality : High
Add ID3 tag : No
Command line compressor : C:\Program Files\FLAC\flac.exe
Additional command line options : -5 -T "Artist=%artist%" -T "Title=%title%" -T "Album=%albumtitle%" -T "Date=%year%" -T "Tracknumber=%tracknr%" -T "Genre=%genre%" %source% -o %dest%


TOC of the extracted CD

Track | Start | Length | Start sector | End sector
---------------------------------------------------------
1 | 0:00.00 | 2:45.01 | 0 | 12375
2 | 2:45.01 | 3:34.70 | 12376 | 28495
3 | 6:19.71 | 4:57.34 | 28496 | 50804
4 | 11:17.30 | 6:07.27 | 50805 | 78356
5 | 17:24.57 | 2:19.38 | 78357 | 88819
6 | 19:44.20 | 3:18.40 | 88820 | 103709
7 | 23:02.60 | 3:01.20 | 103710 | 117304
8 | 26:04.05 | 3:52.11 | 117305 | 134715
9 | 29:56.16 | 7:40.52 | 134716 | 169267
10 | 37:36.68 | 5:23.69 | 169268 | 193561
11 | 43:00.62 | 9:42.72 | 193562 | 237283
12 | 52:43.59 | 3:05.12 | 237284 | 251170
13 | 55:48.71 | 6:02.02 | 251171 | 278322


Range status and errors

Selected range

Filename I:\=== VINYL RIPS ===\=== EAC===\X FRESH RIP\Nicole Cabell, LSO, Davis - Soprano.wav

Peak level 100.0 %
Extraction speed 1.1 X
Range quality 100.0 %
Test CRC 96B5C65D
Copy CRC 96B5C65D
Copy OK

No errors occurred


AccurateRip summary

Track 1 accurately ripped (confidence 2) [C12FF8DA] (AR v2)
Track 2 accurately ripped (confidence 2) [F6A768EC] (AR v2)
Track 3 accurately ripped (confidence 2) [45C98362] (AR v2)
Track 4 accurately ripped (confidence 2) [5D20246A] (AR v2)
Track 5 accurately ripped (confidence 2) [53EC982B] (AR v2)
Track 6 accurately ripped (confidence 2) [F76C6298] (AR v2)
Track 7 accurately ripped (confidence 2) [25477879] (AR v2)
Track 8 accurately ripped (confidence 2) [6EE08C0F] (AR v2)
Track 9 accurately ripped (confidence 2) [A05A6A6F] (AR v2)
Track 10 accurately ripped (confidence 2) [6200CC7D] (AR v2)
Track 11 accurately ripped (confidence 2) [4A613713] (AR v2)
Track 12 accurately ripped (confidence 2) [F7E4A574] (AR v2)
Track 13 accurately ripped (confidence 2) [FC2BB2B9] (AR v2)

All tracks accurately ripped

End of status report

==== Log checksum B2DDE9F3B5F91237D366F6CAFFF757469E345CC2365E767CFFB80A74F659ADCA ====

Dynamic Range LOG
foobar2000 1.1.7 / Dynamic Range Meter 1.1.1
log date: 2012-06-05 12:40:07

--------------------------------------------------------------------------------
Analyzed: Nicole Cabell, LSO, Davis / Soprano
--------------------------------------------------------------------------------

DR Peak RMS Duration Track
--------------------------------------------------------------------------------
DR12 -0.54 dB -17.86 dB 2:45 01-Puccini¡ELa Boh'eme.¡GQuando me n'vo'
DR12 -0.01 dB -16.72 dB 3:35 02-Gounod¡ERom'eo et Juliette¡GAh! Je veux vivre
DR13 -0.01 dB -19.14 dB 4:57 03-Menotti¡EThe Old Maid and the Thief¡GWhat a curse for a woman is a timid man¡I
DR12 0.00 dB -15.95 dB 6:07 04-Gounod¡ERom'eo et Juliette¡GDieu¡Iquel frisson court dans mes veines¡I ... Am...
DR12 -1.88 dB -19.60 dB 2:20 05-Puccini¡EGianni Schicchi¡GO mio babbino caro
DR13 0.00 dB -18.19 dB 3:19 06-Delibes¡ELes Filles de Cadix
DR11 -2.50 dB -18.81 dB 3:01 07-Gershwin¡EPorgy and Bess¡GSummertime
DR13 -0.28 dB -19.20 dB 3:52 08-Tippett¡EA Child of Our Time¡GHow can I cherish my man in such days
DR12 -0.21 dB -17.24 dB 7:41 09-Berlioz¡EBenvenuto Cellini¡G Les belles fleurs¡I ... Entre l'amour et le devoir
DR11 -1.65 dB -18.51 dB 5:24 10-Charpentier¡ELouise¡GDepuis le jour o'u je me suis donn'ee
DR14 -0.01 dB -20.93 dB 9:43 11-Bellini¡ECapuleti e i Montecchi¡GEccomi in lieta vesta ... Oh! quante volte
DR12 -0.97 dB -18.55 dB 3:05 12-Puccini¡ELa rondine¡GChi il bel sogno di Doretta
DR13 0.00 dB -18.03 dB 6:02 13-Donizetti¡EDon Pasquale¡G'Quel guardo il cavaliere...' ... So anch'io la virt...
--------------------------------------------------------------------------------

Number of tracks: 13
Official DR value: DR12

Samplerate: 44100 Hz
Channels: 2
Bits per sample: 16
Bitrate: 586 kbps
Codec: FLAC
================================================================================



CD Info:

Nicole Cabell - London Philharmonic Orchestra / Andrew Davis - Soprano

Label: Decca
Catalog#: 475 7661
Format: CD, Album
Country: Europe
Released: 2007
Genre: Classical

Tracklist:

01. Puccini - La Boh'eme. - Quando me n'vo' [0:02:45.01]
02. Gounod - Rom'eo et Juliette - Ah! Je veux vivre [0:03:34.70]
03. Menotti - The Old Maid and the Thief - What a curse for a woman is a timid man¡I [0:04:57.34]
04. Gounod - Rom'eo et Juliette - Dieu, quel frisson court dans mes veines, ... Amour, ranime mon courage [0:06:07.27]
05. Puccini - Gianni Schicchi - O mio babbino caro [0:02:19.38]
06. Delibes - Les Filles de Cadix [0:03:18.40]
07. Gershwin - Porgy and Bess - Summertime [0:03:01.20]
08. Tippett - A Child of Our Time - How can I cherish my man in such days [0:03:52.11]
09. Berlioz - Benvenuto Cellini - Les belles fleurs, ... Entre l'amour et le devoir [0:07:40.52]
10. Charpentier - Louise - Depuis le jour o'u je me suis donn'ee [0:05:23.69]
11. Bellini - Capuleti e i Montecchi - Eccomi in lieta vesta ... Oh! quante volte [0:09:42.72]
12. Puccini - La rondine - Chi il bel sogno di Doretta [0:03:05.12]
13. Donizetti - Don Pasquale - "Quel guardo il cavaliere..." ... So anch'io la virt`u magica [0:06:02.02]



review by Stephen Eddins

Soprano Nicole Cabell, who won the 2005 BBC Cardiff Singer of the World competition, is a singer to watch. Her debut solo CD on Decca presents her in a wide variety of arias, from "Summertime" to Juliette's "Ah, Je veux vivre." Her voice is bright, and while she is capable of the required pyrotechnics, she has just a little edge that becomes more pronounced in the coloratura passages at the top of her range. She doesn't yet quite have the effortless warmth to make "Summertime" or "Depuis le jour" bloom with the limpid radiance that makes those arias magical, but that quality may well come. If she doesn't push herself (as she promises not to do in the album's program notes), it's easy to imagine her growing into a singer fully at ease in any of these roles, even knocking them out of the ballpark. Here, she is stunning in Menotti's "What a curse for a woman is a timid man," not usually a showstopper, but she makes it into one. The Delibes song "Les Filles de Cadiz" and the arias from Berlioz's Benvenuto Cellini, Donizetti's Don Pasquale, and Bellini's I Capuleti e i Montecchi lie ideally for her, and in them, she is splendidly secure. Andrew Davis, conducting the London Philharmonic Orchestra, offers unusually sensitive support, and Decca's sound is exemplary. It will be exciting to hear Cabell's voice mature; her debut CD gives every reason to believe that she could become one of the brightest lights in opera.
allmusicguide


________________

Lossless:

Filepost

________________

Lossy:

Filepost

________________

Artwork:

Filepost

________________
ADVERTISING » Very Fast Download! « ADVERTISING


Posted By: doctor.watson Date: 20 Aug 2012 08:15:48
Thank you for posting another great disc!
Nicole Cabell is a top note singer, the arias are first class.
Highly recommended!
Posted By: zorlac Date: 20 Aug 2012 16:13:13
Thank you so much for this great share!!! We definitely need more of this type of stuff (Opera, Sopranos, Tenors, Cardiff winners, etc.)
Posted By: musician3 Date: 22 Aug 2012 21:14:48
Great........................Thank You