Loading...

Mahler - Arnhem Philharmonic, Sieghart - Symphony No. 6 {Hybrid-SACD // EAC Rip}

Posted By : luckburz | Date : 18 Oct 2012 07:47:40 | Comments : 5 |
|



Gustav Mahler - Symphony No. 6 "Tragic"
The Arnhem Philharmonic Orchestra / Martin Sieghart
EAC+LOG+CUE | FLAC: 442 MB | Full Artwork | 5% Recovery Info
Label/Cat#: Exton # HGO 0403 | Country/Year: Europe 2004
Genre: Classical | Style: Late Romantic, Modern

MD5 [X] CUE [X] LOG [X] INFO TEXT [X] ARTWORK [X]

selfrip [X] not my rip []



EAC LOG 01
Exact Audio Copy V1.0 beta 3 from 29. August 2011

EAC extraction logfile from 26. June 2012, 14:32

The Arnhem Philharmonic Orchestra - Martin Sieghart / Mahler - Symphony No. 6 in A minor Disc 1

Used drive : PIONEER BD-RW BDR-206 Adapter: 2 ID: 3

Read mode : Secure
Utilize accurate stream : Yes
Defeat audio cache : Yes
Make use of C2 pointers : No

Read offset correction : 667
Overread into Lead-In and Lead-Out : No
Fill up missing offset samples with silence : Yes
Delete leading and trailing silent blocks : No
Null samples used in CRC calculations : Yes
Used interface : Native Win32 interface for Win NT & 2000

Used output format : User Defined Encoder
Selected bitrate : 896 kBit/s
Quality : High
Add ID3 tag : No
Command line compressor : C:\Program Files\FLAC\flac.exe
Additional command line options : -5 -T "Artist=%artist%" -T "Title=%title%" -T "Album=%albumtitle%" -T "Date=%year%" -T "Tracknumber=%tracknr%" -T "Genre=%genre%" %source% -o %dest%


TOC of the extracted CD

Track | Start | Length | Start sector | End sector
---------------------------------------------------------
1 | 0:00.00 | 25:03.03 | 0 | 112727
2 | 25:03.03 | 13:53.43 | 112728 | 175245


Range status and errors

Selected range

Filename I:\=== VINYL RIPS ===\=== EAC===\X FRESH RIP\Mahler - Symphony No. 6 in A minor Disc 1.wav

Peak level 100.0 %
Extraction speed 6.6 X
Range quality 99.9 %
Test CRC E9AFF8F2
Copy CRC E9AFF8F2
Copy OK

No errors occurred


AccurateRip summary

Track 1 accurately ripped (confidence 4) [A7BB3BF4] (AR v1)
Track 2 accurately ripped (confidence 4) [CD4D78C5] (AR v1)

All tracks accurately ripped

End of status report

---- CUETools DB Plugin V2.1.3

[CTDB TOCID: rjL4RyTZNhM2FRa7vN1untNd6Oo-] found, Submit result: rjL4RyTZNhM2FRa7vN1untNd6Oo- has been confirmed
[ce3f4a6a] (5/5) Accurately ripped


==== Log checksum CA31B1B8A2AFE0CE8EA1A6D9899AFFFAB259010CBFF7C0F1FB0D94FBB3C15CED ====

EAC LOG 02
Exact Audio Copy V1.0 beta 3 from 29. August 2011

EAC extraction logfile from 26. June 2012, 16:29

The Arnhem Philharmonic Orchestra - Martin Sieghart / Mahler - Symphony No. 6 in A minor Disc 2

Used drive : PIONEER BD-RW BDR-206 Adapter: 2 ID: 3

Read mode : Secure
Utilize accurate stream : Yes
Defeat audio cache : Yes
Make use of C2 pointers : No

Read offset correction : 667
Overread into Lead-In and Lead-Out : No
Fill up missing offset samples with silence : Yes
Delete leading and trailing silent blocks : No
Null samples used in CRC calculations : Yes
Used interface : Native Win32 interface for Win NT & 2000

Used output format : User Defined Encoder
Selected bitrate : 896 kBit/s
Quality : High
Add ID3 tag : No
Command line compressor : C:\Program Files\FLAC\flac.exe
Additional command line options : -5 -T "Artist=%artist%" -T "Title=%title%" -T "Album=%albumtitle%" -T "Date=%year%" -T "Tracknumber=%tracknr%" -T "Genre=%genre%" %source% -o %dest%


TOC of the extracted CD

Track | Start | Length | Start sector | End sector
---------------------------------------------------------
1 | 0:00.00 | 18:03.72 | 0 | 81296
2 | 18:03.72 | 33:52.14 | 81297 | 233710


Range status and errors

Selected range

Filename I:\=== VINYL RIPS ===\=== EAC===\X FRESH RIP\Mahler - Symphony No. 6 in A minor Disc 2.wav

Peak level 100.0 %
Extraction speed 1.1 X
Range quality 99.9 %
Test CRC 5923D78A
Copy CRC 5923D78A
Copy OK

No errors occurred


AccurateRip summary

Track 1 accurately ripped (confidence 4) [6015D83A] (AR v1)
Track 2 accurately ripped (confidence 4) [34226B60] (AR v1)

All tracks accurately ripped

End of status report

---- CUETools DB Plugin V2.1.3

[CTDB TOCID: 4i7C0fJI3OkTYrzJeANCBWVYy20-] found, Submit result: database access error: Timeout f├╝r Vorgang ├╝berschritten
[100ec3f5] (5/5) Accurately ripped


==== Log checksum 99BD0B4BB8C005966E2329F7A6E81BEDFE3B7B5D5F1002371D40F92BE0B51A05 ====

Dynamic Range LOG
foobar2000 1.1.11 / Dynamic Range Meter 1.1.1
log date: 2012-10-09 11:24:49

--------------------------------------------------------------------------------
Analyzed: The Arnhem Philharmonic Orchestra - Martin Sieghart / Gustav Mahler - Symphony No. 6 in A minor / Disc 1
--------------------------------------------------------------------------------

DR Peak RMS Duration Track
--------------------------------------------------------------------------------
DR13 -3.18 dB -21.52 dB 25:03 01-1. Allegro energico, ma non troppo
DR14 -3.17 dB -23.81 dB 13:54 02-2. Scherzo. Wuchtig
--------------------------------------------------------------------------------

Number of tracks: 2
Official DR value: DR14

Samplerate: 2822400 Hz / PCM Samplerate: 176400 Hz
Channels: 2
Bits per sample: 24
Bitrate: 5645 kbps
Codec: DSD64
================================================================================

foobar2000 1.1.11 / Dynamic Range Meter 1.1.1
log date: 2012-10-09 12:21:14

--------------------------------------------------------------------------------
Analyzed: The Arnhem Philharmonic Orchestra - Martin Sieghart / Gustav Mahler - Symphony No. 6 in A minor / Disc 2
--------------------------------------------------------------------------------

DR Peak RMS Duration Track
--------------------------------------------------------------------------------
DR16 -3.60 dB -26.06 dB 18:04 01-3. Andante moderato
DR14 -2.20 dB -21.16 dB 33:52 02-4. Finale. Allegro moderato
--------------------------------------------------------------------------------

Number of tracks: 2
Official DR value: DR15

Samplerate: 2822400 Hz / PCM Samplerate: 176400 Hz
Channels: 2
Bits per sample: 24
Bitrate: 5645 kbps
Codec: DSD64
================================================================================



CD Info:

Gustav Mahler - The Arnhem Philharmonic Orchestra / Martin Sieghart - Symphony No. 6 "Tragic"

Label: Exton
Catalog#: HGO 0403
Format: 2x Hybrid-SACD, Album, Stereo, Multichannel
Country: Europe
Released: 2004
Genre: Classical



Tracklist:

Disc 1:

01. 1. Allegro energico, ma non troppo 25:03
02. 2. Scherzo. Wuchtig 13:53

Disc 2:

01. 3. Andante moderato 18:03
02. 4. Finale. Allegro moderato 33:52

________________

Download:

FLAC

Artwork
________________
ADVERTISING » Free Fast Download! « ADVERTISING


Posted By: pilot12612 Date: 18 Oct 2012 17:06:26
Thanks for the share - this is a superior interpretation of the sixth.
Does not surpass my personal fav: Herbert Von Karajan - Berlin Philharmonic Orchestra
But the sound is sooooo much better.
Excellent choice
Posted By: Goodspeed Date: 20 Oct 2012 08:24:29
This is embarrasing: I'm Dutch but I never knew the city of Arnhem had it's own philharmonic orchestra....
Thanks for the eye opener!
Posted By: ipromesisposi Date: 20 Oct 2012 09:53:14
Very kind of you.
Posted By: marol Date: 21 Oct 2012 13:28:34
Thanks for sharing - this is an analytical interpretation of the sixth, the transparency and details incomparable.
Under these circumstances this conductor could seems to be cold in comparison to Lenny Bernstein & Vienna Phil, or Solti / the Chicagoans, but you can "read" the score while listening... without the score in front of you! Nevertheles; my personal comparisson
in the Andante goes in favor of Haitink's second release with the Berliner Philarmoniker in Philips.
Good job luckburz!!! Thank you!
Posted By: bb88 Date: 17 Nov 2012 01:17:34
Would you pls re-upload the EAC-Rip-flac to "Uploaded"? Filepost is out of service in my district.Thanks.