Loading...

Claude Debussy - Larissa Dedova - Complete Solo Piano Music (2010) [4x CD]

Posted By : luckburz | Date : 04 Aug 2012 17:11:23 | Comments : 10 |
|



Claude Debussy - Larissa Dedova - Complete Solo Piano Music
EAC+LOG+CUE | FLAC: 962 MB | MP3 CBR 320: 806 MB | Full Artwork | 5% Recovery Info
Label/Cat#: Centaur Records # CRC 3094/95/96/97 | Country/Year: Europe 2010 [4x CD]
Genre: Classical | Hoster: Romantic / Modern

MD5 [X] CUE [X] LOG [X] INFO TEXT [X] ARTWORK [X]

webfind [] selfrip [X]




EAC LOG 01
Exact Audio Copy V1.0 beta 2 from 29. April 2011

EAC extraction logfile from 30. May 2012, 19:29

Larissa Dedova / Debussy - Complete Solo Piano Music, Disc 01

Used drive : PIONEER BD-RW BDR-206 Adapter: 2 ID: 3

Read mode : Secure
Utilize accurate stream : Yes
Defeat audio cache : Yes
Make use of C2 pointers : No

Read offset correction : 667
Overread into Lead-In and Lead-Out : No
Fill up missing offset samples with silence : Yes
Delete leading and trailing silent blocks : No
Null samples used in CRC calculations : Yes
Used interface : Native Win32 interface for Win NT & 2000

Used output format : User Defined Encoder
Selected bitrate : 896 kBit/s
Quality : High
Add ID3 tag : No
Command line compressor : C:\Program Files\FLAC\flac.exe
Additional command line options : -5 -T "Artist=%artist%" -T "Title=%title%" -T "Album=%albumtitle%" -T "Date=%year%" -T "Tracknumber=%tracknr%" -T "Genre=%genre%" %source% -o %dest%


TOC of the extracted CD

Track | Start | Length | Start sector | End sector
---------------------------------------------------------
1 | 0:00.00 | 3:55.25 | 0 | 17649
2 | 3:55.25 | 3:27.20 | 17650 | 33194
3 | 7:22.45 | 2:27.49 | 33195 | 44268
4 | 9:50.19 | 4:14.70 | 44269 | 63388
5 | 14:05.14 | 3:09.51 | 63389 | 77614
6 | 17:14.65 | 4:02.35 | 77615 | 95799
7 | 21:17.25 | 3:45.28 | 95800 | 112702
8 | 25:02.53 | 2:30.00 | 112703 | 123952
9 | 27:32.53 | 2:46.57 | 123953 | 136459
10 | 30:19.35 | 7:01.22 | 136460 | 168056
11 | 37:20.57 | 2:57.43 | 168057 | 181374
12 | 40:18.25 | 2:29.32 | 181375 | 192581
13 | 42:47.57 | 5:10.64 | 192582 | 215895
14 | 47:58.46 | 6:29.51 | 215896 | 245121
15 | 54:28.22 | 3:28.18 | 245122 | 260739
16 | 57:56.40 | 2:18.60 | 260740 | 271149
17 | 60:15.25 | 4:24.54 | 271150 | 291003
18 | 64:40.04 | 3:31.17 | 291004 | 306845
19 | 68:11.21 | 3:26.46 | 306846 | 322341
20 | 71:37.67 | 5:28.56 | 322342 | 346997


Range status and errors

Selected range

Filename I:\=== VINYL RIPS ===\=== EAC===\X FRESH RIP\Debussy - Dedova - Complete Solo Piano Music, Disc 01.wav

Peak level 100.0 %
Extraction speed 8.4 X
Range quality 100.0 %
Test CRC 7F3D7488
Copy CRC 7F3D7488
Copy OK

No errors occurred


AccurateRip summary

Track 1 not present in database
Track 2 not present in database
Track 3 not present in database
Track 4 not present in database
Track 5 not present in database
Track 6 not present in database
Track 7 not present in database
Track 8 not present in database
Track 9 not present in database
Track 10 not present in database
Track 11 not present in database
Track 12 not present in database
Track 13 not present in database
Track 14 not present in database
Track 15 not present in database
Track 16 not present in database
Track 17 not present in database
Track 18 not present in database
Track 19 not present in database
Track 20 not present in database

None of the tracks are present in the AccurateRip database

End of status report

==== Log checksum B2A06A52E329C3FCA33B79F29572F0838C95FA3CDF4A74CEE9444E54DBEDBCC5 ====

EAC LOG 02
Exact Audio Copy V1.0 beta 2 from 29. April 2011

EAC extraction logfile from 30. May 2012, 19:55

Larissa Dedova / Debussy - Complete Solo Piano Music, Disc 02

Used drive : PIONEER BD-RW BDR-206 Adapter: 2 ID: 3

Read mode : Secure
Utilize accurate stream : Yes
Defeat audio cache : Yes
Make use of C2 pointers : No

Read offset correction : 667
Overread into Lead-In and Lead-Out : No
Fill up missing offset samples with silence : Yes
Delete leading and trailing silent blocks : No
Null samples used in CRC calculations : Yes
Used interface : Native Win32 interface for Win NT & 2000

Used output format : User Defined Encoder
Selected bitrate : 896 kBit/s
Quality : High
Add ID3 tag : No
Command line compressor : C:\Program Files\FLAC\flac.exe
Additional command line options : -5 -T "Artist=%artist%" -T "Title=%title%" -T "Album=%albumtitle%" -T "Date=%year%" -T "Tracknumber=%tracknr%" -T "Genre=%genre%" %source% -o %dest%


TOC of the extracted CD

Track | Start | Length | Start sector | End sector
---------------------------------------------------------
1 | 0:00.00 | 3:27.67 | 0 | 15591
2 | 3:27.67 | 3:16.33 | 15592 | 30324
3 | 6:44.25 | 3:33.36 | 30325 | 46335
4 | 10:17.61 | 3:19.25 | 46336 | 61285
5 | 13:37.11 | 3:16.27 | 61286 | 76012
6 | 16:53.38 | 2:43.29 | 76013 | 88266
7 | 19:36.67 | 4:55.61 | 88267 | 110452
8 | 24:32.53 | 3:34.64 | 110453 | 126566
9 | 28:07.42 | 2:28.02 | 126567 | 137668
10 | 30:35.44 | 2:49.74 | 137669 | 150417
11 | 33:25.43 | 2:43.68 | 150418 | 162710
12 | 36:09.36 | 4:36.46 | 162711 | 183456
13 | 40:46.07 | 5:11.33 | 183457 | 206814
14 | 45:57.40 | 5:29.27 | 206815 | 231516
15 | 51:26.67 | 3:57.61 | 231517 | 249352
16 | 55:24.53 | 7:37.72 | 249353 | 283699
17 | 63:02.50 | 2:56.62 | 283700 | 296961
18 | 65:59.37 | 6:19.61 | 296962 | 325447
19 | 72:19.23 | 4:26.73 | 325448 | 345470


Range status and errors

Selected range

Filename I:\=== VINYL RIPS ===\=== EAC===\X FRESH RIP\Debussy - Dedova - Complete Solo Piano Music, Disc 02.wav

Peak level 100.0 %
Extraction speed 8.4 X
Range quality 100.0 %
Test CRC CAD4B534
Copy CRC CAD4B534
Copy OK

No errors occurred


AccurateRip summary

Track 1 not present in database
Track 2 not present in database
Track 3 not present in database
Track 4 not present in database
Track 5 not present in database
Track 6 not present in database
Track 7 not present in database
Track 8 not present in database
Track 9 not present in database
Track 10 not present in database
Track 11 not present in database
Track 12 not present in database
Track 13 not present in database
Track 14 not present in database
Track 15 not present in database
Track 16 not present in database
Track 17 not present in database
Track 18 not present in database
Track 19 not present in database

None of the tracks are present in the AccurateRip database

End of status report

==== Log checksum 221488E045797AD758E3C4B1C6D83CAC2A5DBB39A058527D0884CD5E358EAC46 ====

EAC LOG 03
Exact Audio Copy V1.0 beta 2 from 29. April 2011

EAC extraction logfile from 30. May 2012, 20:40

Larissa Dedova / Debussy - Complete Solo Piano Music, Disc 03

Used drive : PIONEER BD-RW BDR-206 Adapter: 2 ID: 3

Read mode : Secure
Utilize accurate stream : Yes
Defeat audio cache : Yes
Make use of C2 pointers : No

Read offset correction : 667
Overread into Lead-In and Lead-Out : No
Fill up missing offset samples with silence : Yes
Delete leading and trailing silent blocks : No
Null samples used in CRC calculations : Yes
Used interface : Native Win32 interface for Win NT & 2000

Used output format : User Defined Encoder
Selected bitrate : 896 kBit/s
Quality : High
Add ID3 tag : No
Command line compressor : C:\Program Files\FLAC\flac.exe
Additional command line options : -5 -T "Artist=%artist%" -T "Title=%title%" -T "Album=%albumtitle%" -T "Date=%year%" -T "Tracknumber=%tracknr%" -T "Genre=%genre%" %source% -o %dest%


TOC of the extracted CD

Track | Start | Length | Start sector | End sector
---------------------------------------------------------
1 | 0:00.00 | 3:22.62 | 0 | 15211
2 | 3:22.62 | 3:57.36 | 15212 | 33022
3 | 7:20.23 | 5:43.37 | 33023 | 58784
4 | 13:03.60 | 4:37.07 | 58785 | 79566
5 | 17:40.67 | 3:06.33 | 79567 | 93549
6 | 20:47.25 | 1:46.47 | 93550 | 101546
7 | 22:33.72 | 2:27.56 | 101547 | 112627
8 | 25:01.53 | 5:51.12 | 112628 | 138964
9 | 30:52.65 | 3:51.38 | 138965 | 156327
10 | 34:44.28 | 5:51.61 | 156328 | 182713
11 | 40:36.14 | 4:49.67 | 182714 | 204455
12 | 45:26.06 | 5:13.58 | 204456 | 227988
13 | 50:39.64 | 2:15.54 | 227989 | 238167
14 | 52:55.43 | 3:34.56 | 238168 | 254273
15 | 56:30.24 | 2:30.12 | 254274 | 265535
16 | 59:00.36 | 2:47.16 | 265536 | 278076
17 | 61:47.52 | 2:05.06 | 278077 | 287457
18 | 63:52.58 | 2:56.58 | 287458 | 300715
19 | 66:49.41 | 4:14.40 | 300716 | 319805
20 | 71:04.06 | 2:18.11 | 319806 | 330166
21 | 73:22.17 | 1:42.37 | 330167 | 337853
22 | 75:04.54 | 0:54.07 | 337854 | 341910
23 | 75:58.61 | 1:06.00 | 341911 | 346860


Range status and errors

Selected range

Filename I:\=== VINYL RIPS ===\=== EAC===\X FRESH RIP\Debussy - Dedova - Complete Solo Piano Music, Disc 03.wav

Peak level 100.0 %
Extraction speed 8.4 X
Range quality 100.0 %
Test CRC 45E29183
Copy CRC 45E29183
Copy OK

No errors occurred


AccurateRip summary

Track 1 not present in database
Track 2 not present in database
Track 3 not present in database
Track 4 not present in database
Track 5 not present in database
Track 6 not present in database
Track 7 not present in database
Track 8 not present in database
Track 9 not present in database
Track 10 not present in database
Track 11 not present in database
Track 12 not present in database
Track 13 not present in database
Track 14 not present in database
Track 15 not present in database
Track 16 not present in database
Track 17 not present in database
Track 18 not present in database
Track 19 not present in database
Track 20 not present in database
Track 21 not present in database
Track 22 not present in database
Track 23 not present in database

None of the tracks are present in the AccurateRip database

End of status report

==== Log checksum A0D36FDDCFB804439B96FA71C81AF249F4696FF2416C0819E46884021A3B0AE1 ====

EAC LOG 04
Exact Audio Copy V1.0 beta 2 from 29. April 2011

EAC extraction logfile from 30. May 2012, 21:05

Larissa Dedova / Debussy - Complete Solo Piano Music, Disc 04

Used drive : PIONEER BD-RW BDR-206 Adapter: 2 ID: 3

Read mode : Secure
Utilize accurate stream : Yes
Defeat audio cache : Yes
Make use of C2 pointers : No

Read offset correction : 667
Overread into Lead-In and Lead-Out : No
Fill up missing offset samples with silence : Yes
Delete leading and trailing silent blocks : No
Null samples used in CRC calculations : Yes
Used interface : Native Win32 interface for Win NT & 2000

Used output format : User Defined Encoder
Selected bitrate : 896 kBit/s
Quality : High
Add ID3 tag : No
Command line compressor : C:\Program Files\FLAC\flac.exe
Additional command line options : -5 -T "Artist=%artist%" -T "Title=%title%" -T "Album=%albumtitle%" -T "Date=%year%" -T "Tracknumber=%tracknr%" -T "Genre=%genre%" %source% -o %dest%


TOC of the extracted CD

Track | Start | Length | Start sector | End sector
---------------------------------------------------------
1 | 0:00.00 | 4:22.67 | 0 | 19716
2 | 4:22.67 | 4:10.24 | 19717 | 38490
3 | 8:33.16 | 4:56.52 | 38491 | 60742
4 | 13:29.68 | 3:24.17 | 60743 | 76059
5 | 16:54.10 | 4:01.21 | 76060 | 94155
6 | 20:55.31 | 4:20.40 | 94156 | 113695
7 | 25:15.71 | 4:26.28 | 113696 | 133673
8 | 29:42.24 | 6:05.36 | 133674 | 161084
9 | 35:47.60 | 5:15.54 | 161085 | 184763
10 | 41:03.39 | 4:04.32 | 184764 | 203095
11 | 45:07.71 | 3:55.56 | 203096 | 220776
12 | 49:03.52 | 4:01.11 | 220777 | 238862
13 | 53:04.63 | 5:09.22 | 238863 | 262059
14 | 58:14.10 | 5:22.39 | 262060 | 286248
15 | 63:36.49 | 6:28.36 | 286249 | 315384
16 | 70:05.10 | 4:17.18 | 315385 | 334677
17 | 74:22.28 | 2:16.08 | 334678 | 344885
18 | 76:38.36 | 2:11.74 | 344886 | 354784


Range status and errors

Selected range

Filename I:\=== VINYL RIPS ===\=== EAC===\X FRESH RIP\Debussy - Dedova - Complete Solo Piano Music, Disc 04.wav

Peak level 100.0 %
Extraction speed 8.4 X
Range quality 100.0 %
Test CRC 34818F2B
Copy CRC 34818F2B
Copy OK

No errors occurred


AccurateRip summary

Track 1 not present in database
Track 2 not present in database
Track 3 not present in database
Track 4 not present in database
Track 5 not present in database
Track 6 not present in database
Track 7 not present in database
Track 8 not present in database
Track 9 not present in database
Track 10 not present in database
Track 11 not present in database
Track 12 not present in database
Track 13 not present in database
Track 14 not present in database
Track 15 not present in database
Track 16 not present in database
Track 17 not present in database
Track 18 not present in database

None of the tracks are present in the AccurateRip database

End of status report

==== Log checksum 7343C3D5EB8E7EAB0E210C4694AD26FBD6B20CE5D75B48775CEE6F1F0A9260AD ====


Dynamic Range LOG
foobar2000 1.1.7 / Dynamic Range Meter 1.1.1
log date: 2012-06-04 18:47:19

--------------------------------------------------------------------------------
Analyzed: Larissa Dedova / Debussy - Complete Solo Piano Music, Disc 01
--------------------------------------------------------------------------------

DR Peak RMS Duration Track
--------------------------------------------------------------------------------
DR16 -7.61 dB -30.58 dB 3:55 01-Preludes (Book 1) - Danseuses de Delphes
DR16 -1.44 dB -26.72 dB 3:27 02-Preludes (Book 1) - Voiles
DR17 0.00 dB -24.20 dB 2:28 03-Preludes (Book 1) - Le vent dans la plaine
DR15 -9.34 dB -31.30 dB 4:15 04-Preludes (Book 1) - Les sons et les parfums tournent dans l'air du soir
DR14 -1.73 dB -22.45 dB 3:10 05-Preludes (Book 1) - Les collines d'Anacapri
DR14 -12.64 dB -38.29 dB 4:02 06-Preludes (Book 1) - Des pas sur la neige
DR13 -1.63 dB -20.59 dB 3:45 07-Preludes (Book 1) - Ce qu'a vu le vent d'Quest
DR15 -6.62 dB -30.83 dB 2:30 08-Preludes (Book 1) - La fille aux cheveux de lin
DR14 -1.96 dB -25.57 dB 2:47 09-Preludes (Book 1) - La sérénade interrompue
DR15 -2.16 dB -24.89 dB 7:01 10-Preludes (Book 1) - La Cathédrale engloutie
DR16 -4.60 dB -25.43 dB 2:58 11-Preludes (Book 1) - La dance de Puck
DR14 -1.84 dB -23.63 dB 2:29 12-Preludes (Book 1) - Minstrels
DR15 -4.24 dB -26.84 dB 5:11 13-Images (Set 1) - Reflets dans l'eau
DR18 0.00 dB -26.78 dB 6:30 14-Images (Set 1) - Hommage à Rameau
DR13 -2.81 dB -21.45 dB 3:28 15-Images (Set 1) - Mouvement
DR13 -7.85 dB -25.77 dB 2:19 16-Dance bohémiene
DR13 -8.44 dB -27.04 dB 4:25 17-Deux Arabesques - Andante con moto
DR14 -4.85 dB -24.48 dB 3:31 18-Deux Arabesques - Allegretto scherzando
DR14 -2.56 dB -23.98 dB 3:27 19-Valse romantique
DR13 -2.50 dB -22.06 dB 5:29 20-Danse (Tarantelle styrienne)
--------------------------------------------------------------------------------

Number of tracks: 20
Official DR value: DR15

Samplerate: 44100 Hz
Channels: 2
Bits per sample: 16
Bitrate: 389 kbps
Codec: FLAC
================================================================================

--------------------------------------------------------------------------------
Analyzed: Larissa Dedova / Debussy - Complete Solo Piano Music, Disc 02
--------------------------------------------------------------------------------

DR Peak RMS Duration Track
--------------------------------------------------------------------------------
DR18 -7.84 dB -32.12 dB 3:28 01-Preludes (Book 2) 1. Brouillards
DR15 -7.60 dB -33.73 dB 3:16 02-Preludes (Book 2) 2. Feuilles mortes
DR16 -2.24 dB -27.20 dB 3:33 03-Preludes (Book 2) 3. La puerta del Vino
DR13 -3.87 dB -25.99 dB 3:19 04-Preludes (Book 2) 4. Les fées sont d'exquises danseuses
DR12 -12.35 dB -32.11 dB 3:16 05-Preludes (Book 2) 5. Bruyères
DR16 0.00 dB -22.54 dB 2:43 06-Preludes (Book 2) 6. General Lavine - excentric
DR20 -2.72 dB -29.87 dB 4:56 07-Preludes (Book 2) 7. La terrasse des audiences du clair de lune
DR13 -6.83 dB -28.91 dB 3:35 08-Preludes (Book 2) 8. Ondine
DR14 -2.77 dB -22.78 dB 2:28 09-Preludes (Book 2) 9. Hommage à Samuel Pickwick Esq. P.P.M.P.C.
DR13 -16.60 dB -36.79 dB 2:50 10-Preludes (Book 2) 10. Canope
DR13 -5.91 dB -25.47 dB 2:44 11-Preludes (Book 2) 11. Les tierces alternées
DR16 -0.11 dB -22.23 dB 4:37 12-Preludes (Book 2) 12. Feux d'artifice
DR16 -7.18 dB -30.94 dB 5:11 13-Images (Set 2) 1. Cloches à travers les feuilles
DR15 -13.52 dB -35.00 dB 5:29 14-Images (Set 2) 2. Et la lune descend sur le temple qui fut
DR14 -1.50 dB -21.45 dB 3:58 15-Images (Set 2) 3. Poissons d'or
DR14 -8.16 dB -28.25 dB 7:38 16-Ballade
DR14 -4.50 dB -25.66 dB 2:57 17-Mazurka
DR14 -4.98 dB -26.13 dB 6:20 18-Nocturne
DR14 -10.51 dB -30.88 dB 4:27 19-Rêverie
--------------------------------------------------------------------------------

Number of tracks: 19
Official DR value: DR15

Samplerate: 44100 Hz
Channels: 2
Bits per sample: 16
Bitrate: 375 kbps
Codec: FLAC
================================================================================

--------------------------------------------------------------------------------
Analyzed: Larissa Dedova / Debussy - Complete Solo Piano Music, Disc 03
--------------------------------------------------------------------------------

DR Peak RMS Duration Track
--------------------------------------------------------------------------------
DR13 -0.46 dB -19.01 dB 3:23 01-Etudes (Book 1) 1. Pour les cinq doigts - d'après Monsieur Czerny
DR14 0.00 dB -20.27 dB 3:57 02-Etudes (Book 1) 2. Pour les tierces
DR15 -2.07 dB -24.74 dB 5:43 03-Etudes (Book 1) 3. Por les quartes
DR15 -4.98 dB -27.15 dB 4:37 04-Etudes (Book 1) 4. Pour les sixtes
DR13 -0.07 dB -18.75 dB 3:06 05-Etudes (Book 1) 5. Pour les octaves
DR12 -0.75 dB -21.12 dB 1:47 06-Etudes (Book 1) 6. Pour les huit doigts
DR12 -0.77 dB -20.12 dB 2:28 07-Etudes (Book 2) 7. Pour les degrés chromatiques
DR14 -0.49 dB -21.63 dB 5:51 08-Etudes (Book 2) 8. Pour les agréments
DR14 -2.00 dB -21.74 dB 3:52 09-Etudes (Book 2) 9. Pour les notes répétées
DR20 0.00 dB -28.08 dB 5:52 10-Etudes (Book 2) 10. Pour les sonorités opposés
DR15 -4.04 dB -24.82 dB 4:50 11-Etudes (Book 2) 11. Pour les arpéges composés
DR14 0.00 dB -19.89 dB 5:14 12-Etudes (Book 2) 12. Pour les accords
DR12 -3.50 dB -22.31 dB 2:16 13-Children's Corner 1. Doctor Gradus ad Parnassum
DR14 -9.96 dB -32.68 dB 3:35 14-Children's Corner 2. Jimbo's Lullaby
DR14 -9.03 dB -27.49 dB 2:30 15-Children's Corner 3. Serenade for the Doll
DR15 -5.64 dB -27.48 dB 2:47 16-Children's Corner 4. The Snow is Dancing
DR13 -14.60 dB -33.89 dB 2:05 17-Children's Corner 5. The Little Shepherd
DR17 -2.00 dB -24.99 dB 2:57 18-Children's Corner 6. Golliwogg's Cake-Walk
DR15 -3.22 dB -24.93 dB 4:15 19-La plus que lente
DR14 -2.83 dB -23.89 dB 2:18 20-Hommage à Haydn
DR15 -1.00 dB -23.80 dB 1:42 21-La Petit Nègre
DR12 -1.00 dB -19.38 dB 0:54 22-Morceau de concours
DR11 -12.67 dB -29.50 dB 1:06 23-Pièce pour l'oeuvre du Vêtement du blessé
--------------------------------------------------------------------------------

Number of tracks: 23
Official DR value: DR14

Samplerate: 44100 Hz
Channels: 2
Bits per sample: 16
Bitrate: 386 kbps
Codec: FLAC
================================================================================

--------------------------------------------------------------------------------
Analyzed: Larissa Dedova / Debussy - Complete Solo Piano Music, Disc 04
--------------------------------------------------------------------------------

DR Peak RMS Duration Track
--------------------------------------------------------------------------------
DR14 -0.50 dB -21.35 dB 4:23 01-Suite bergamasque 1. Prélude
DR13 -3.33 dB -21.71 dB 4:10 02-Suite bergamasque 2. Menuet
DR14 -7.92 dB -28.14 dB 4:57 03-Suite bergamasque 3. Clair de lune
DR13 -5.61 dB -23.37 dB 3:24 04-Suite bergamasque 4. Passepied
DR13 -0.50 dB -19.35 dB 4:01 05-Pour le piano 1. Prélude
DR14 -5.64 dB -26.55 dB 4:21 06-Pour le piano 2. Sarabande
DR13 -1.55 dB -19.57 dB 4:26 07-Pour le piano 3. Toccata
DR16 0.00 dB -22.84 dB 6:05 08-Estampes 1. Pagodes
DR15 -0.15 dB -22.07 dB 5:16 09-Estampes 2. La soirée dans Grenade
DR14 -1.08 dB -19.48 dB 4:04 10-Estampes 3. Jardins sous la pluie
DR16 -4.35 dB -26.93 dB 3:56 11-Images (oubliées) 1. Lent (Mélancolique et doux)
DR15 0.00 dB -20.19 dB 4:01 12-Images (oubliées) 2. Très vite
DR12 0.00 dB -20.04 dB 5:09 13-Masques
DR17 -3.15 dB -27.56 dB 5:23 14-D'un cahier d'esquisses
DR14 0.00 dB -19.55 dB 6:28 15-L'isle joyeuse
DR18 0.00 dB -25.01 dB 4:17 16-Berceuse héroique
DR15 -10.19 dB -31.46 dB 2:16 17-Elégie
DR14 -9.53 dB -30.49 dB 2:12 18-Les soirs illuminés par l'ardeur du charbon
--------------------------------------------------------------------------------

Number of tracks: 18
Official DR value: DR14

Samplerate: 44100 Hz
Channels: 2
Bits per sample: 16
Bitrate: 414 kbps
Codec: FLAC
================================================================================



CD Info:

Claude Debussy - Larissa Dedova - Complete Solo Piano Music

Label: Centaur Records
Catalog#: CRC 3094/95/96/97
Format: 4xCD, Album
Country: Europe
Released: 2010
Genre: Classical

Tracklist:

CD: Larissa Dedova - Debussy - Complete Solo Piano Music, Disc 01

01. Preludes (Book 1) - Danseuses de Delphes [0:03:55.25]
02. Preludes (Book 1) - Voiles [0:03:27.20]
03. Preludes (Book 1) - Le vent dans la plaine [0:02:27.49]
04. Preludes (Book 1) - Les sons et les parfums tournent dans l'air du soir [0:04:14.70]
05. Preludes (Book 1) - Les collines d'Anacapri [0:03:09.51]
06. Preludes (Book 1) - Des pas sur la neige [0:04:02.35]
07. Preludes (Book 1) - Ce qu'a vu le vent d'Quest [0:03:45.28]
08. Preludes (Book 1) - La fille aux cheveux de lin [0:02:30.00]
09. Preludes (Book 1) - La sérénade interrompue [0:02:46.57]
10. Preludes (Book 1) - La Cathédrale engloutie [0:07:01.22]
11. Preludes (Book 1) - La dance de Puck [0:02:57.43]
12. Preludes (Book 1) - Minstrels [0:02:29.32]
13. Images (Set 1) - Reflets dans l'eau [0:05:10.64]
14. Images (Set 1) - Hommage à Rameau [0:06:29.51]
15. Images (Set 1) - Mouvement [0:03:28.18]
16. Dance bohémiene [0:02:18.60]
17. Deux Arabesques - Andante con moto [0:04:24.54]
18. Deux Arabesques - Allegretto scherzando [0:03:31.17]
19. Valse romantique [0:03:26.46]
20. Danse (Tarantelle styrienne) [0:05:28.56]

CD: Larissa Dedova - Debussy - Complete Solo Piano Music, Disc 02

01. Preludes (Book 2) 1. Brouillards [0:03:27.67]
02. Preludes (Book 2) 2. Feuilles mortes [0:03:16.33]
03. Preludes (Book 2) 3. La puerta del Vino [0:03:33.36]
04. Preludes (Book 2) 4. Les fées sont d'exquises danseuses [0:03:19.25]
05. Preludes (Book 2) 5. Bruyères [0:03:16.27]
06. Preludes (Book 2) 6. General Lavine - excentric [0:02:43.29]
07. Preludes (Book 2) 7. La terrasse des audiences du clair de lune [0:04:55.61]
08. Preludes (Book 2) 8. Ondine [0:03:34.64]
09. Preludes (Book 2) 9. Hommage à Samuel Pickwick Esq. P.P.M.P.C. [0:02:28.02]
10. Preludes (Book 2) 10. Canope [0:02:49.74]
11. Preludes (Book 2) 11. Les tierces alternées [0:02:43.68]
12. Preludes (Book 2) 12. Feux d'artifice [0:04:36.46]
13. Images (Set 2) 1. Cloches à travers les feuilles [0:05:11.33]
14. Images (Set 2) 2. Et la lune descend sur le temple qui fut [0:05:29.27]
15. Images (Set 2) 3. Poissons d'or [0:03:57.61]
16. Ballade [0:07:37.72]
17. Mazurka [0:02:56.62]
18. Nocturne [0:06:19.61]
19. Rêverie [0:04:26.73]

CD: Larissa Dedova - Debussy - Complete Solo Piano Music, Disc 03

01. Etudes (Book 1) 1. Pour les cinq doigts - d'après Monsieur Czerny [0:03:22.62]
02. Etudes (Book 1) 2. Pour les tierces [0:03:57.36]
03. Etudes (Book 1) 3. Por les quartes [0:05:43.37]
04. Etudes (Book 1) 4. Pour les sixtes [0:04:37.07]
05. Etudes (Book 1) 5. Pour les octaves [0:03:06.33]
06. Etudes (Book 1) 6. Pour les huit doigts [0:01:46.47]
07. Etudes (Book 2) 7. Pour les degrés chromatiques [0:02:27.56]
08. Etudes (Book 2) 8. Pour les agréments [0:05:51.12]
09. Etudes (Book 2) 9. Pour les notes répétées [0:03:51.38]
10. Etudes (Book 2) 10. Pour les sonorités opposés [0:05:51.61]
11. Etudes (Book 2) 11. Pour les arpéges composés [0:04:49.67]
12. Etudes (Book 2) 12. Pour les accords [0:05:13.58]
13. Children's Corner 1. Doctor Gradus ad Parnassum [0:02:15.54]
14. Children's Corner 2. Jimbo's Lullaby [0:03:34.56]
15. Children's Corner 3. Serenade for the Doll [0:02:30.12]
16. Children's Corner 4. The Snow is Dancing [0:02:47.16]
17. Children's Corner 5. The Little Shepherd [0:02:05.06]
18. Children's Corner 6. Golliwogg's Cake-Walk [0:02:56.58]
19. La plus que lente [0:04:14.40]
20. Hommage à Haydn [0:02:18.11]
21. La Petit Nègre [0:01:42.37]
22. Morceau de concours [0:00:54.07]
23. Pièce pour l'oeuvre du Vêtement du blessé [0:01:06.00]

CD: Larissa Dedova - Debussy - Complete Solo Piano Music, Disc 04

01. Suite bergamasque 1. Prélude [0:04:22.67]
02. Suite bergamasque 2. Menuet [0:04:10.24]
03. Suite bergamasque 3. Clair de lune [0:04:56.52]
04. Suite bergamasque 4. Passepied [0:03:24.17]
05. Pour le piano 1. Prélude [0:04:01.21]
06. Pour le piano 2. Sarabande [0:04:20.40]
07. Pour le piano 3. Toccata [0:04:26.28]
08. Estampes 1. Pagodes [0:06:05.36]
09. Estampes 2. La soirée dans Grenade [0:05:15.54]
10. Estampes 3. Jardins sous la pluie [0:04:04.32]
11. Images (oubliées) 1. Lent (Mélancolique et doux) [0:03:55.56]
12. Images (oubliées) 2. Très vite [0:04:01.11]
13. Masques [0:05:09.22]
14. D'un cahier d'esquisses [0:05:22.39]
15. L'isle joyeuse [0:06:28.36]
16. Berceuse héroique [0:04:17.18]
17. Elégie [0:02:16.08]
18. Les soirs illuminés par l'ardeur du charbon [0:02:11.74]



You will note the asterisk after Images oubliées. This set of three pieces, aka Images inédites (“new”), wasn’t published as a set until 1977 and titled oubliées (“forgotten”) to avoid confusion with the two later sets of Images. It’s not known whether the composer intended the pieces to be played together. In any event, he later made minor changes to the Sarabande and reused it in Pour le piano. In her survey, Dedova relocates the Sarabande from the Images oubliées to the second number in Pour le piano, leaving the Images oubliées with just two numbers, Lent and Très vite.

Also, most surveys of a composer’s oeuvre that advertise themselves as “complete” must be taken with a grain of salt. Roy Howat, who has written extensively on Debussy and is recognized internationally as an authoritative scholar on the composer’s piano works, includes some miscellaneous unpublished items that Dedova doesn’t—namely, Étude retrouvée and Intermède.

Beginning with Book 1 of the preludes, Dedova’s anthology doesn’t follow a chronological order, though the pre-1900 stand-alone pieces are pretty much gathered on the first two discs, while the post-1900 stand-alone numbers come later on discs 3 and 4, ending with the very last to be written, Les Soirs illuminés par l’ardeur du charbon (Evenings lit by the burning coals). The manuscript was only recently discovered and, according to the composer’s complete list of works, it’s the last piece for solo piano he wrote. It has no “L” number entry in François Lesure’s catalog.

The collection was recorded over a fairly long period, beginning in 2002 with the two books of preludes. A lengthy hiatus followed, lasting until 2008, when Dedova picked up where she left off, recording the remaining works in May and June of 2008 and between April and November 2009. Steinway Ds are used throughout, but not the same ones; venues changed from the Clarice Smith Performing Arts Center at the University of Maryland, College Park, to the Concert Hall of Gnessin Academy of Music in Moscow; and with them recording engineers. Overall, however, a good job has been done to assure that changes in tone production and aural perspective aren’t really noticeable.

Dedova’s approach to Debussy may not be the last word on the composer’s piano music, and it certainly isn’t the only one, but within the parameters of her interpretive point of view, it has validity and is supported by an unerring musical instinct and flawless technique. For the most part, Dedova chooses to emphasize the Impressionist aspects of Debussy’s Impressionism, which is to say she opts for softer, pastel tonal colorations, blurring lines with liberal use of pedals, and rounding off the rhythmic edges. The result, as expected, in such pieces as Les Fées sont d’exquises danseuses (Fairies are exquisite dancers) and Bruyères (Heather) from Book 2 of the Preludes is a sense of time suspended as if in a dream state that is ever so delicately perfumed and ever so slightly eroticized.

As noted, this is not the only way to play Debussy—Howat believes the composer was quite meticulous in matters of rhythmic exactitude and clarity of voicing—but it works quite well in a piece like Rèverie, which in title and intent gives itself over to a kind of semiconscious, nocturnal fantasy. In the faster-paced numbers of the etudes and Children’s Corner—doesn’t “Doctor Gradus ad Parnassum” echo the voice of Schumann?—my sense is they could do with a bit more rhythmic pointing and definition.

Don’t get me wrong; Dedova is an artist of the highest caliber and she takes the listener on this journey through Debussy’s landscape as a knowledgeable and confident guide. It’s just that the tone of voice and expression she summons from her instrument to illuminate each landmark do not quite match the music’s wide diversity of moods, colors, and characters. Debussy, I think, was not quite as two-dimensional as Dedova sometimes makes him seem.

For those who appreciate Debussy’s strong Impressionist streak and who may find Howat’s approach a bit too analytical or detached, Dedova is the perfect antidote. By any measure, this is attractive, shapely playing filled with many gratifying moments you will want to savor repeatedly, and at a budget selling price of $34.99 for four discs—that’s $8.75 per disc—you can, without too much strain on your wallet. This wouldn’t necessarily be my first or only choice for a collection of Debussy’s complete piano music, but it’s definitely recommended.

FANFARE: Jerry Dubins



________________

Download:

Filepost Part 1
Filepost Part 2
Filepost Part 3
Filepost Part 4
Filepost Art
________________
ADVERTISING » Click here to download Ebooks/Magazines for free « ADVERTISING


Posted By: citromos Date: 05 Aug 2012 03:43:30
Thank You!!!
Posted By: FIboreka Date: 05 Aug 2012 06:14:02
Thank you!
Posted By: libra_winmx Date: 05 Aug 2012 16:12:05
THANKS A LOT, luckburz.

Gracias,

libra, from Brazil, Rio de Janeiro
Posted By: dimwit Date: 01 Sep 2012 17:47:52
thank your verrrrrry mudtchj
Posted By: will parker Date: 11 Sep 2012 04:27:37
Thanks for posting.
Posted By: rigoletto Date: 14 Sep 2012 15:42:43
Can u please fix the links?
Posted By: luckburz Date: 14 Sep 2012 17:03:24
Works for me...
Posted By: rigoletto Date: 14 Sep 2012 17:58:20
:-)) Filepost is working now . Thank you :-))
Posted By: alsoel Date: 02 Mar 2013 15:34:55
Muchas GraciaS!!!
Posted By: Margi88 Date: 17 Mar 2013 19:31:23
Thank you very much darling! :)