Loading...

Dmitri Shostakovich - Moscow, Cheryomushki Op 105 (Prokina, et al - Rozhdestvensky - Hague Residentie Orch)

Posted By : tapaz9 | Date : 11 Jan 2012 12:29:31 | Comments : 3 |
|



Dmitri Shostakovich - Moscow, Cheryomushki Op 105 (Prokina, et al - Rozhdestvensky - Hague Residentie Orch)
Classical | EAC: FLAC+Cue+Log | 2 Cd, Cover+Booklet | 890 Mb
Label: Chandos - Date: 1997

Although best known for his 15 symphonies and 15 string quartets, Shostakovich actually began his compositional career as a composer for the theater. Before he was 30, he had composed two full-length operas, three full-length ballets, incidental music for seven plays, and eight film scores. All this ended in 1936 when his opera Lady Macbeth of the Mtsensk District and his ballet The Limpid Stream were denounced on the front page of Pravda. From that time onward, Shostakovich completed an opera for a student who died in the War, wrote the first act of an opera he never completed, and allowed several ballets to be compiled and arranged from his pre-existing music but he never again wrote a work for the theater.

Except, that is, for Moskva, Cheremushki -- a relentlessly cheerful three-act musical comedy with a satirical edge, set in a real apartment complex south of Moscow. A mixture of song, dance, and spectacle, Moskva, Cheremushki included pop songs, folk songs, massed songs, social realism, social satire, and romance; in form it resembled the operettas of Offenbach, Lehár, and Kalman, the Hollywood film musicals of the 1930s and 1940s, and Broadway musicals of all time, and in Shostakovich's hands it holds together astonishingly well as a piece of popular art.

The plot, such as it is, concerns the inhabitants of the Cheremushki apartment complex and their successful attempt to thwart a plan by the complex's general manager to evict them. But the plot is merely a frame upon which Shostakovich hung his delightful music. Number after number features attractive and instantly memorable melodies set to exhilarating orchestrations. Shostakovich's music balances the sentimental requirements of the form with the satirical requirements of his own conscious. The result is a work which reveals that, had he wanted to, Shostakovich could have written some of the best Broadway musicals of the time.

Some sections of Moskva, Cheremushki are scattered among the "Ballet Suites" prepared from various Shostakovich scores by Lev Avtomian. In addition, British composer Andrew Cornall made a different suite, drawing only on the musical, with the approval of Shostakovich's widow.

from Allmusic

Tracks CD 1:

01. Overture: Allegretto [0:05:18.52]
02. That's right! Music! [0:00:32.73]
03. Well I've lived for fifty years on Tyolpyi Lane [0:01:39.40]
04. Bubentsov and the Chorus of Visitors [0:02:33.62]
05. Now please step into the next hall, comrades!' [0:00:59.18]
06. Duet Masha and Bubentsov [0:03:49.07]
07. Pantomime [0:02:37.43]
08. What time is it? [0:00:12.62]
09. Boris's aria [0:01:55.18]
10. I've come back from Moscow... [0:00:29.65]
11. Boris's Song-serenade [0:02:16.17]
12. Have you only just got here? [0:00:51.28]
13. Lidochka's song [0:02:35.20]
14. Lidochka, Lidochka... [0:01:24.27]
15. Excursion around Moscow [0:04:03.13]
16. Where's the car? [0:00:54.00]
17. Duet Vava and Drebednyov [0:04:39.00]
18. End of excursion around Moscow [0:00:40.50]
19. Semyon Semyonovich... [0:00:35.20]
20. Ensemble of Residents [0:05:04.55]
21. Sergey's song about Mar'ina Roscha [0:02:00.15]
22. Baburov's song about Tyoplyi Lane [0:03:24.10]
23. So it's Tyoplyi Lane then? [0:00:12.50]
24. Song about Cheremushki [0:02:50.37]
25. Barabashkin with the Residents [0:00:53.70]
26. What are you thinking of, citizens? [0:00:53.23]
27. Boris's song [0:01:54.45]
28. Valka! [0:03:54.60]
29. Barabashkin and Drebednyov with residents [0:00:47.65]
30. Finale of act 1 [0:01:01.57]
31. Barabashkin's couplets [0:02:30.73]
32. That's it Lidochka, that's it! [0:00:53.45]
33. Duet Lidochka and Boris [0:06:22.00]

Tracks CD 2:

01. You are not angry, my valiant sir? [0:02:45.17]
02. Duet Lyusya and Sergey [0:04:58.63]
03. Oh, what was that? [0:02:11.22]
04. Barabashkin's and Drebednyov's Couplets [0:03:58.60]
05. Fedya! [0:00:36.15]
06. Duet Lidochka and Boris [0:02:46.10]
07. So where is the young man? [0:01:03.53]
08. Scene Lidochka, Baburov, Barabashkin, Drebednyov [0:00:41.42]
09. And where are you off to? [0:00:45.40]
10. Lyusya and the construction workers [0:00:59.35]
11. Let's have some tea [0:01:06.60]
12. Duet Masha and Bubentsov [0:03:08.35]
13. Masha, someone ringing [0:02:53.55]
14. Polka [0:04:20.15]
15. Guests! [0:02:57.10]
16. Song about Cheremushki [0:00:22.53]
17. Where can we go now? [0:00:27.07]
18. Ballet [0:06:33.13]
19. Apotheosis [0:01:13.02]
20. That was the move to the new flat... [0:00:34.53]
21. Finale of act 2 [0:00:35.57]
22. Entr'acte [0:02:32.43]
23. Scene [0:00:54.65]
24. Play something, comrade conductor... [0:00:36.30]
25. Lidochka's Song [0:01:44.27]
26. Taking things easy?! [0:00:50.18]
27. Waltz of the flowers [0:01:04.50]
28. Am I dreaming [0:01:14.10]
29. Barabashkin's Song [0:00:39.70]
30. Are you afraid? [0:03:43.37]
31. Duet Lidochka and Boris [0:01:54.18]
32. Nevertheless, the parade ground has been cleared! [0:04:22.60]
33. Sergey's Song [0:00:49.17]
34. Not bad that bench [0:02:42.65]
35. Scene Barabashkin [0:01:03.08]
36. Finale [0:01:44.57]

EAC log CD 1

Exact Audio Copy V1.0 beta 3 from 29. August 2011

EAC extraction logfile from 10. January 2012, 23:05

Shostakovich / Moscow, Cheryomushki (operetta) Op 105 (Prokina, et al - Rozhdestvensky - Hague Residentie Orch)

Used drive : TSSTcorpCD/DVDW TS-H552B Adapter: 3 ID: 1

Read mode : Secure
Utilize accurate stream : Yes
Defeat audio cache : Yes
Make use of C2 pointers : No

Read offset correction : 12
Overread into Lead-In and Lead-Out : No
Fill up missing offset samples with silence : Yes
Delete leading and trailing silent blocks : No
Null samples used in CRC calculations : Yes
Used interface : Native Win32 interface for Win NT & 2000

Used output format : User Defined Encoder
Selected bitrate : 896 kBit/s
Quality : High
Add ID3 tag : No
Command line compressor : C:\Program Files (x86)\Exact Audio Copy\Flac\flac.exe
Additional command line options : -V -0 -T "artist=%artist%" -T "title=%title%" -T "album=%albumtitle%" -T "date=%year%" -T "tracknumber=%tracknr%" -T "genre=%genre%" %source%


TOC of the extracted CD

Track | Start | Length | Start sector | End sector
---------------------------------------------------------
1 | 0:00.00 | 5:18.52 | 0 | 23901
2 | 5:18.52 | 0:32.73 | 23902 | 26374
3 | 5:51.50 | 1:39.40 | 26375 | 33839
4 | 7:31.15 | 2:33.62 | 33840 | 45376
5 | 10:05.02 | 0:59.18 | 45377 | 49819
6 | 11:04.20 | 3:49.07 | 49820 | 67001
7 | 14:53.27 | 2:37.43 | 67002 | 78819
8 | 17:30.70 | 0:12.62 | 78820 | 79781
9 | 17:43.57 | 1:55.18 | 79782 | 88424
10 | 19:39.00 | 0:29.65 | 88425 | 90664
11 | 20:08.65 | 2:16.17 | 90665 | 100881
12 | 22:25.07 | 0:51.28 | 100882 | 104734
13 | 23:16.35 | 2:35.20 | 104735 | 116379
14 | 25:51.55 | 1:24.27 | 116380 | 122706
15 | 27:16.07 | 4:03.13 | 122707 | 140944
16 | 31:19.20 | 0:54.00 | 140945 | 144994
17 | 32:13.20 | 4:39.00 | 144995 | 165919
18 | 36:52.20 | 0:40.50 | 165920 | 168969
19 | 37:32.70 | 0:35.20 | 168970 | 171614
20 | 38:08.15 | 5:04.55 | 171615 | 194469
21 | 43:12.70 | 2:00.15 | 194470 | 203484
22 | 45:13.10 | 3:24.10 | 203485 | 218794
23 | 48:37.20 | 0:12.50 | 218795 | 219744
24 | 48:49.70 | 2:50.37 | 219745 | 232531
25 | 51:40.32 | 0:53.70 | 232532 | 236576
26 | 52:34.27 | 0:53.23 | 236577 | 240574
27 | 53:27.50 | 1:54.45 | 240575 | 249169
28 | 55:22.20 | 3:54.60 | 249170 | 266779
29 | 59:17.05 | 0:47.65 | 266780 | 270369
30 | 60:04.70 | 1:01.57 | 270370 | 275001
31 | 61:06.52 | 2:30.73 | 275002 | 286324
32 | 63:37.50 | 0:53.45 | 286325 | 290344
33 | 64:31.20 | 6:22.00 | 290345 | 318994


Range status and errors

Selected range

Filename F:\Musique\Shostakovich, Dmitri\Moskva,_Cheremushki\Shostakovich - Moscow, Cheryomushki (operetta) Op 105 CD 1.wav

Peak level 100.0 %
Extraction speed 10.7 X
Range quality 99.9 %
Test CRC 56BA4D0D
Copy CRC 56BA4D0D
Copy OK

No errors occurred


AccurateRip summary

Track 1 accurately ripped (confidence 5) [12010A8B] (AR v1)
Track 2 accurately ripped (confidence 5) [2846D455] (AR v1)
Track 3 accurately ripped (confidence 5) [B3878EB8] (AR v1)
Track 4 accurately ripped (confidence 5) [08E333AA] (AR v1)
Track 5 accurately ripped (confidence 5) [881517A9] (AR v1)
Track 6 accurately ripped (confidence 5) [C9064776] (AR v1)
Track 7 accurately ripped (confidence 5) [5E3DC020] (AR v1)
Track 8 accurately ripped (confidence 5) [9A863505] (AR v1)
Track 9 accurately ripped (confidence 5) [17E80A4A] (AR v1)
Track 10 accurately ripped (confidence 5) [7A4BB50C] (AR v1)
Track 11 accurately ripped (confidence 5) [3CDBBCE2] (AR v1)
Track 12 accurately ripped (confidence 5) [DB0FC542] (AR v1)
Track 13 accurately ripped (confidence 5) [E1C2359E] (AR v1)
Track 14 accurately ripped (confidence 5) [CB775D14] (AR v1)
Track 15 accurately ripped (confidence 5) [7BEDC7F1] (AR v1)
Track 16 accurately ripped (confidence 5) [AAAC8DB9] (AR v1)
Track 17 accurately ripped (confidence 5) [E085254B] (AR v1)
Track 18 accurately ripped (confidence 5) [3AE769C2] (AR v1)
Track 19 accurately ripped (confidence 5) [AFB01491] (AR v1)
Track 20 accurately ripped (confidence 5) [4CEBCCA2] (AR v1)
Track 21 accurately ripped (confidence 5) [BB694F39] (AR v1)
Track 22 accurately ripped (confidence 5) [EFAEFCF0] (AR v1)
Track 23 accurately ripped (confidence 5) [BEE850EA] (AR v1)
Track 24 accurately ripped (confidence 5) [C786F2B4] (AR v1)
Track 25 accurately ripped (confidence 5) [62E9576E] (AR v1)
Track 26 accurately ripped (confidence 5) [306841E6] (AR v1)
Track 27 accurately ripped (confidence 5) [A5B22779] (AR v1)
Track 28 accurately ripped (confidence 5) [2E9F7671] (AR v1)
Track 29 accurately ripped (confidence 5) [D970713F] (AR v1)
Track 30 accurately ripped (confidence 5) [5174320C] (AR v1)
Track 31 accurately ripped (confidence 5) [9FE07562] (AR v1)
Track 32 accurately ripped (confidence 5) [CC895B54] (AR v1)
Track 33 accurately ripped (confidence 5) [F76EEE9F] (AR v1)

All tracks accurately ripped

End of status report

==== Log checksum 6CCB3CB00700B664C96ECB462D2EC90B1131224A5CC39F9E768B4E6CF279F40C ====


EAC log CD 2

Exact Audio Copy V1.0 beta 3 from 29. August 2011

EAC extraction logfile from 10. January 2012, 23:21

Shostakovich / Moscow, Cheryomushki (operetta) Op 105 (Prokina, et al - Rozhdestvensky - Hague Residentie Orch) (2)

Used drive : TSSTcorpCD/DVDW TS-H552B Adapter: 3 ID: 1

Read mode : Secure
Utilize accurate stream : Yes
Defeat audio cache : Yes
Make use of C2 pointers : No

Read offset correction : 12
Overread into Lead-In and Lead-Out : No
Fill up missing offset samples with silence : Yes
Delete leading and trailing silent blocks : No
Null samples used in CRC calculations : Yes
Used interface : Native Win32 interface for Win NT & 2000

Used output format : User Defined Encoder
Selected bitrate : 896 kBit/s
Quality : High
Add ID3 tag : No
Command line compressor : C:\Program Files (x86)\Exact Audio Copy\Flac\flac.exe
Additional command line options : -V -0 -T "artist=%artist%" -T "title=%title%" -T "album=%albumtitle%" -T "date=%year%" -T "tracknumber=%tracknr%" -T "genre=%genre%" %source%


TOC of the extracted CD

Track | Start | Length | Start sector | End sector
---------------------------------------------------------
1 | 0:00.00 | 2:45.17 | 0 | 12391
2 | 2:45.17 | 4:58.63 | 12392 | 34804
3 | 7:44.05 | 2:11.22 | 34805 | 44651
4 | 9:55.27 | 3:58.60 | 44652 | 62561
5 | 13:54.12 | 0:36.15 | 62562 | 65276
6 | 14:30.27 | 2:46.10 | 65277 | 77736
7 | 17:16.37 | 1:03.53 | 77737 | 82514
8 | 18:20.15 | 0:41.42 | 82515 | 85631
9 | 19:01.57 | 0:45.40 | 85632 | 89046
10 | 19:47.22 | 0:59.35 | 89047 | 93506
11 | 20:46.57 | 1:06.60 | 93507 | 98516
12 | 21:53.42 | 3:08.35 | 98517 | 112651
13 | 25:02.02 | 2:53.55 | 112652 | 125681
14 | 27:55.57 | 4:20.15 | 125682 | 145196
15 | 32:15.72 | 2:57.10 | 145197 | 158481
16 | 35:13.07 | 0:22.53 | 158482 | 160184
17 | 35:35.60 | 0:27.07 | 160185 | 162216
18 | 36:02.67 | 6:33.13 | 162217 | 191704
19 | 42:36.05 | 1:13.02 | 191705 | 197181
20 | 43:49.07 | 0:34.53 | 197182 | 199784
21 | 44:23.60 | 0:35.57 | 199785 | 202466
22 | 44:59.42 | 2:32.43 | 202467 | 213909
23 | 47:32.10 | 0:54.65 | 213910 | 218024
24 | 48:27.00 | 0:36.30 | 218025 | 220754
25 | 49:03.30 | 1:44.27 | 220755 | 228581
26 | 50:47.57 | 0:50.18 | 228582 | 232349
27 | 51:38.00 | 1:04.50 | 232350 | 237199
28 | 52:42.50 | 1:14.10 | 237200 | 242759
29 | 53:56.60 | 0:39.70 | 242760 | 245754
30 | 54:36.55 | 3:43.37 | 245755 | 262516
31 | 58:20.17 | 1:54.18 | 262517 | 271084
32 | 60:14.35 | 4:22.60 | 271085 | 290794
33 | 64:37.20 | 0:49.17 | 290795 | 294486
34 | 65:26.37 | 2:42.65 | 294487 | 306701
35 | 68:09.27 | 1:03.08 | 306702 | 311434
36 | 69:12.35 | 1:44.57 | 311435 | 319291


Range status and errors

Selected range

Filename F:\Musique\Shostakovich, Dmitri\Moskva,_Cheremushki\Shostakovich - Moscow, Cheryomushki (operetta) Op 105 CD 2.wav

Peak level 99.8 %
Extraction speed 10.6 X
Range quality 100.0 %
Test CRC 1EDB9A09
Copy CRC 1EDB9A09
Copy OK

No errors occurred


AccurateRip summary

Track 1 accurately ripped (confidence 6) [0AA95317] (AR v1)
Track 2 accurately ripped (confidence 6) [04A4A118] (AR v1)
Track 3 accurately ripped (confidence 6) [EB0D217B] (AR v1)
Track 4 accurately ripped (confidence 6) [10D7ED47] (AR v1)
Track 5 accurately ripped (confidence 6) [034D3F73] (AR v1)
Track 6 accurately ripped (confidence 6) [6A97D321] (AR v1)
Track 7 accurately ripped (confidence 6) [79FA7F15] (AR v1)
Track 8 accurately ripped (confidence 6) [87114E13] (AR v1)
Track 9 accurately ripped (confidence 6) [13BEB4B4] (AR v1)
Track 10 accurately ripped (confidence 6) [2F3F5516] (AR v1)
Track 11 accurately ripped (confidence 6) [04A1BA33] (AR v1)
Track 12 accurately ripped (confidence 6) [F6BBAC5D] (AR v1)
Track 13 accurately ripped (confidence 6) [C17932A2] (AR v1)
Track 14 accurately ripped (confidence 6) [5B1216C4] (AR v1)
Track 15 accurately ripped (confidence 6) [B06B922B] (AR v1)
Track 16 accurately ripped (confidence 6) [7C6BDD8C] (AR v1)
Track 17 accurately ripped (confidence 6) [13583FD3] (AR v1)
Track 18 accurately ripped (confidence 6) [CEF23FE5] (AR v1)
Track 19 accurately ripped (confidence 6) [4842C623] (AR v1)
Track 20 accurately ripped (confidence 6) [5AB1DD2C] (AR v1)
Track 21 accurately ripped (confidence 6) [686CD9DB] (AR v1)
Track 22 accurately ripped (confidence 6) [6890383A] (AR v1)
Track 23 accurately ripped (confidence 6) [D02481C0] (AR v1)
Track 24 accurately ripped (confidence 6) [52F17294] (AR v1)
Track 25 accurately ripped (confidence 6) [E4E215AB] (AR v1)
Track 26 accurately ripped (confidence 6) [162E2E58] (AR v1)
Track 27 accurately ripped (confidence 6) [A0AC1427] (AR v1)
Track 28 accurately ripped (confidence 6) [A75661CD] (AR v1)
Track 29 accurately ripped (confidence 6) [38445A6F] (AR v1)
Track 30 accurately ripped (confidence 6) [0055DCBD] (AR v1)
Track 31 accurately ripped (confidence 6) [C10065FB] (AR v1)
Track 32 accurately ripped (confidence 6) [FD0C6EC6] (AR v1)
Track 33 accurately ripped (confidence 6) [73200A45] (AR v1)
Track 34 accurately ripped (confidence 6) [4E16EFED] (AR v1)
Track 35 accurately ripped (confidence 6) [EB086CB7] (AR v1)
Track 36 accurately ripped (confidence 6) [8306A063] (AR v1)

All tracks accurately ripped

End of status report

==== Log checksum CD146386DB143742F00319C41A22E7898719C19292F72DE247157FA8AD276F2D ====

No Mirrors and Torrent-uploads Please

Check out my other classical music posts at My Avax blog

ADVERTISING » Very Fast Download! « ADVERTISING


Posted By: Borgia Date: 31 Jan 2012 01:50:18
Thank you very much!!!
Posted By: tapaz9 Date: 31 Jan 2012 06:52:20
@Borgia
I will today re-upload to other hosters
Posted By: Madlej1 Date: 03 Feb 2012 08:18:37
thanks :D:D:D