Loading...

Brahms - Complete Symphonies & Overtures - Barbirolli & Vienna Philharmonic (1966-67)[4 CD Set Japanese EMI/Angel]

Posted By : hammck | Date : 30 May 2010 04:57:32 | Comments : 18 |
|



Brahms - Complete Symphonies & Overtures - Barbirolli & Vienna Philharmonic (1966-67)[4 CD Set Japanese EMI/Angel]
Rip for Mac | FLAC (Tracks), CUE, LOG, SCANS | 1.03GB - (244MB + 263MB + 242MB + 277MB)
Classical | Label: EMI Angel Japan | CD Number CC30-3294 ~ 7 Printed by Toshiba | Rapidshare
Rare CD set, printed mid-1980's. It's hard to find information on this set anywhere on the internet.

Splendid performances now out of print, which is crazy…. Lush, spacious readings and the Vienna Philharmonic play very well for Barbirolli. Highly recommended!

CD Listing

Brahms, Johannes (1833-1897) - Complete Symphonies
Sir John Barbirolli - Vienna Philharmonic Orchestra

CD 1
01-04. Symphony No. 1 in c minor op. 68
rec. 4-8/Dec/1967 Vienna

CD 2
01-04. Symphony No. 2 in D Major op. 73
05. Tragic Overture op 81
rec. 7-9/Dec/1966 and 4-19th/Dec/1967 Vienna

CD 3
01-04. Symphony No. 3 in F Major op. 90
05. Variations on a Theme by Haydn op. 56a
rec. 4, 8, 15, 18, 19/Dec/1967 Vienna

CD 4
01-04. Symphony No. 14 in e minor op. 98
05. Academic Festival Overture op. 80
rec. 4-19/Dec/1967 and 4-9/Dec/1966 Vienna

Log CD1
Rip 1.0b (14) Audio Extraction Log
========================================
Thursday, 3 December 2009 1:05:14 PM NZT

Drive Information
========================================
Drive used: PIONEER DVD-RW DVR-111D (1.19)
Interconnect type: FireWire
Location: External
Stream accurate: Yes
Read offset: 48

Compact Disc Information
========================================
Name: Unknown Artist - Brahms - Symphonies (Barbirolli/VPO)
MusicBrainz ID: b5UJMffAQSMBn_wL_URsO6Ztc.c-
FreeDB ID: 2d0b9604
AccurateRip ID: 004-0008424d-00209360-2d0b9604
TOC:

Track | Start | Stop | Duration | First | Last | Total
Num | MM:SS.FF | MM:SS.FF | MM:SS.FF | Sector | Sector | Sectors
-------+------------+------------+------------+----------+----------+---------
1 | 00:02.00 | 15:34.29 | 15:32.30 | 0 | 69929 | 69930
2 | 15:34.30 | 25:05.36 | 09:31.07 | 69930 | 112761 | 42832
3 | 25:05.37 | 30:16.61 | 05:11.25 | 112762 | 136111 | 23350
4 | 30:16.62 | 49:28.06 | 19:11.20 | 136112 | 222456 | 86345

Extracted Audio
========================================
Album replay gain: -1.99 dB
Album peak level: 0.88430786

Track 1 saved to 01 Symphony No.1 in C minor, Op.68 - 1.flac

Audio MD5 hash: 61c805c52d8639043fa4f2fdec6b4af7
Audio SHA1 hash: 20847cb15c7dba52711f55d7a71d012563b06198
AccurateRip checksum: 50aba285

Replay gain: -2.57 dB
Peak level: 0.87860107

Copy verified

Track 2 saved to 02 Symphony No.1 in C minor, Op.68 - 2.flac

Audio MD5 hash: a8f3028f52c30b5277c55161e42a193a
Audio SHA1 hash: 4ecdfb9e323e1ecfd9caa1020a163a45de3d00f6
AccurateRip checksum: ade5bf00

Replay gain: +3.24 dB
Peak level: 0.54315186

Copy verified

Track 3 saved to 03 Symphony No.1 in C minor, Op.68 - 3.flac

Audio MD5 hash: b79e370e8840284b92a47746496778ec
Audio SHA1 hash: b092c9aac903d10f30d65d9c00d46f81957acd0f
AccurateRip checksum: 1d219f7f

Replay gain: +1.74 dB
Peak level: 0.66644287

Copy verified

Track 4 saved to 04 Symphony No.1 in C minor, Op.68 - 4.flac

Audio MD5 hash: 2ce4011fd2849ff802e1796be0baa329
Audio SHA1 hash: 2ce5b328dcdac330bd60a42a5ba99bfac2467db9
AccurateRip checksum: 22bcdcda

Replay gain: -2.41 dB
Peak level: 0.88430786

Copy verified


Log CD2
Rip 1.0b (14) Audio Extraction Log
========================================
Thursday, 3 December 2009 12:41:32 PM NZT

Drive Information
========================================
Drive used: PIONEER DVD-RW DVR-111D (1.19)
Interconnect type: FireWire
Location: External
Stream accurate: Yes
Read offset: 48

Compact Disc Information
========================================
Name: Brahms, Johannes (1833-1897) - Brahms - Symphonies (Barbirolli/VPO)
MusicBrainz ID: cts6I77ggLi84ftCoFC8_iJkbEw-
FreeDB ID: 3a0cd605
AccurateRip ID: 005-000ba81d-003518c2-3a0cd605
TOC:

Track | Start | Stop | Duration | First | Last | Total
Num | MM:SS.FF | MM:SS.FF | MM:SS.FF | Sector | Sector | Sectors
-------+------------+------------+------------+----------+----------+---------
1 | 00:02.00 | 15:33.61 | 15:31.62 | 0 | 69886 | 69887
2 | 15:33.62 | 26:01.51 | 10:27.65 | 69887 | 116976 | 47090
3 | 26:01.52 | 31:45.46 | 05:43.70 | 116977 | 142771 | 25795
4 | 31:45.47 | 41:46.29 | 10:00.58 | 142772 | 187829 | 45058
5 | 41:46.30 | 54:48.16 | 13:01.62 | 187830 | 246466 | 58637

Extracted Audio
========================================
Album replay gain: -1.56 dB
Album peak level: 1.00000000

Track 1 saved to 01 Symphony No.2 in D major, Op.73 - 1. Allegro non troppo.flac

Audio MD5 hash: 3f2c650cb0d6473537a1db173f5b86a3
Audio SHA1 hash: 530d9e5eb6fda462a1108343df698c2caeab95c2
AccurateRip checksum: 06f333ec

Replay gain: -1.70 dB
Peak level: 0.91198730

Copy verified

Track 2 saved to 02 Symphony No.2 in D major, Op.73 - 2. Adagio non troppo.flac

Audio MD5 hash: 0e4cd7be301a6b0601455017809f5d86
Audio SHA1 hash: 2b4162fedf923161659757204541fc57fad740f0
AccurateRip checksum: fcfcb055

Replay gain: -1.23 dB
Peak level: 0.83303833

Copy verified

Track 3 saved to 03 Symphony No.2 in D major, Op.73 - 3. Allegretto grazioso (Quasi andantino - Presto ma non assai).flac

Audio MD5 hash: 5a342ad9c31e13a26eac13af9d160b36
Audio SHA1 hash: ada49b3ca948caa8ab65b677de83d64c273e0d1a
AccurateRip checksum: ec2ab0fe

Replay gain: +3.93 dB
Peak level: 0.75222778

Copy verified

Track 4 saved to 04 Symphony No.2 in D major, Op.73 - 4. Allegro con spirito.flac

Audio MD5 hash: 5c46a3469542b7999718304d0077be1d
Audio SHA1 hash: e707d6eb51b9bb84cb108e0555c0d72e75e9da22
AccurateRip checksum: 9e162a8b

Replay gain: -2.86 dB
Peak level: 0.92245483

Copy verified

Track 5 saved to 05 Tragic Overture op. 81.flac

Audio MD5 hash: 234198153274a931a2bdfd2db89d5154
Audio SHA1 hash: 19a07a648345eb36a0e6965459c880739704da19
AccurateRip checksum: 1cdc7b2f

Replay gain: +0.09 dB
Peak level: 1.00000000

Copy verified


Log CD3
Rip 1.0b (14) Audio Extraction Log
========================================
Thursday, 3 December 2009 2:21:31 PM NZT

Drive Information
========================================
Drive used: PIONEER DVD-RW DVR-111D (1.19)
Interconnect type: FireWire
Location: External
Stream accurate: Yes
Read offset: 48

Compact Disc Information
========================================
Name: Barbirolli & VPO - Brahms - Symphony No. 3 in F major
MusicBrainz ID: ZHS5fT_OU03vHYFRnuO9euJek4c-
FreeDB ID: 330c8d05
AccurateRip ID: 005-0009dd9a-002e85fa-330c8d05
TOC:

Track | Start | Stop | Duration | First | Last | Total
Num | MM:SS.FF | MM:SS.FF | MM:SS.FF | Sector | Sector | Sectors
-------+------------+------------+------------+----------+----------+---------
1 | 00:02.00 | 10:09.59 | 10:07.60 | 0 | 45584 | 45585
2 | 10:09.60 | 19:17.31 | 09:07.47 | 45585 | 86656 | 41072
3 | 19:17.32 | 25:32.39 | 06:15.08 | 86657 | 114789 | 28133
4 | 25:32.40 | 35:15.04 | 09:42.40 | 114790 | 158479 | 43690
5 | 35:15.05 | 53:35.66 | 18:20.62 | 158480 | 241041 | 82562

Extracted Audio
========================================
Album replay gain: -1.02 dB
Album peak level: 0.99996948

Track 1 saved to 01 1. Allegro con brio.flac

Audio MD5 hash: 1da7c798d04d288ed6e0c56319f7bb59
Audio SHA1 hash: 129d2636a14b36a5bb2a4bd5e5832530dd56557c
AccurateRip checksum: f17a0d36

Replay gain: -2.97 dB
Peak level: 0.84716797

Copy verified

Track 2 saved to 02 2. Andante.flac

Audio MD5 hash: fa9d967276c113b39838af533a273334
Audio SHA1 hash: 27a12b3ec88cea63a3c7194aa28c409af414a9c6
AccurateRip checksum: 69e55bfc

Replay gain: +2.58 dB
Peak level: 0.71511841

Copy verified

Track 3 saved to 03 3. Poco Allegretto.flac

Audio MD5 hash: ba6b16f4b9e787c52f2e243fbb008626
Audio SHA1 hash: 2383e40fd054cac0936d3fa8301759ec8342d21a
AccurateRip checksum: 727e5597

Replay gain: +6.96 dB
Peak level: 0.63269043

Copy verified

Track 4 saved to 04 4. Allegro.flac

Audio MD5 hash: 4686f20fcae68d7c76ba112415db3ea8
Audio SHA1 hash: ceee245b1fb2ee4d0f0dd4a4b37f34ce81bc406a
AccurateRip checksum: b630bb2b

Replay gain: -2.01 dB
Peak level: 0.99996948

Copy verified

Track 5 saved to 05 Variations on a theme by Haydn op. 56a.flac

Audio MD5 hash: ffacb07fa7585ff88c41b7162e9e3f23
Audio SHA1 hash: 3adc7489e6a11c29318697ff7965afbb8113b4c6
AccurateRip checksum: ffa1627c

Replay gain: +0.81 dB
Peak level: 0.84347534

Copy verified


Log CD4
Rip 1.0b (14) Audio Extraction Log
========================================
Thursday, 3 December 2009 2:50:26 PM NZT

Drive Information
========================================
Drive used: PIONEER DVD-RW DVR-111D (1.19)
Interconnect type: FireWire
Location: External
Stream accurate: Yes
Read offset: 48

Compact Disc Information
========================================
Name: Brahms, Johannes (1833-1897) - Brahms - Symphonies (Barbirolli/VPO)
MusicBrainz ID: sCxWmBmIa5Q5RaOPwiqEY7j5dtQ-
FreeDB ID: 3f0d6a05
AccurateRip ID: 005-000c411f-00383e61-3f0d6a05
TOC:

Track | Start | Stop | Duration | First | Last | Total
Num | MM:SS.FF | MM:SS.FF | MM:SS.FF | Sector | Sector | Sectors
-------+------------+------------+------------+----------+----------+---------
1 | 00:02.00 | 14:07.46 | 14:05.47 | 0 | 63421 | 63422
2 | 14:07.47 | 26:55.54 | 12:48.08 | 63422 | 121029 | 57608
3 | 26:55.55 | 34:25.66 | 07:30.12 | 121030 | 154791 | 33762
4 | 34:25.67 | 45:52.21 | 11:26.30 | 154792 | 206271 | 51480
5 | 45:52.22 | 57:16.36 | 11:24.15 | 206272 | 257586 | 51315

Extracted Audio
========================================
Album replay gain: -2.12 dB
Album peak level: 1.00000000

Track 1 saved to 01 Symphony No.4 in E minor, Op.98 - 1. Allegro non troppo.flac

Audio MD5 hash: 6dde970de1667dc7d503a9a36d84d8a1
Audio SHA1 hash: dd5dacce356d2efbcfa5764e420e0ee25a7ac086
AccurateRip checksum: fb9b4f38

Replay gain: -2.09 dB
Peak level: 0.89431763

Copy verified

Track 2 saved to 02 Symphony No.4 in E minor, Op.98 - 2. Andante moderato.flac

Audio MD5 hash: 5231b91345016f50a1491c7aa6eab1a8
Audio SHA1 hash: b5996e940af0b120969338c83e2293914040b459
AccurateRip checksum: 4520d4ae

Replay gain: +0.47 dB
Peak level: 0.82531738

Copy verified

Track 3 saved to 03 Symphony No.4 in E minor, Op.98 - 3. Allegro giocoso - poco meno presto.flac

Audio MD5 hash: fd72629bfc45a7f1564fbb0921323e27
Audio SHA1 hash: c935eb57a2ec90dbe51903e817ec6cbefce6b682
AccurateRip checksum: 64e809ee

Replay gain: -3.09 dB
Peak level: 0.98196411

Copy verified

Track 4 saved to 04 Symphony No.4 in E minor, Op.98 - 4. Allegro energico e passionato - Piu allegro.flac

Audio MD5 hash: 5648817e20146014c3d54b9ac0c038ac
Audio SHA1 hash: f34c0116f9f4a29e65a2eaa344cb8ee6115a2548
AccurateRip checksum: 05c862e3

Replay gain: -1.98 dB
Peak level: 1.00000000

Copy verified

Track 5 saved to 05 Academic Festival Overture, Op.80.flac

Audio MD5 hash: 4a7bf7c4aede5e001d04727c239821d5
Audio SHA1 hash: 2e9ee53f0d4305869229ed21bdf5888a91eec9e7
AccurateRip checksum: ea6ac84e

Replay gain: -3.32 dB
Peak level: 0.90646362

Copy verified

Download in Lossless:

Disc 1
Part 1 | Part 2 | Part 3

Disc 2
Part 1 | Part 2 | Part 3

Disc 3
Part 1 | Part 2 | Part 3

Disc 4
Part 1 | Part 2 | Part 3

Artwork
Scans

ADVERTISING » Free Fast Download! « ADVERTISING


Posted By: Dobermann1 Date: 30 May 2010 05:10:36
Thank you for sharing this extraordinary set !
Posted By: ipromesisposi Date: 30 May 2010 05:59:29
A long waited recording!
Very kind of you.
Posted By: w2003 Date: 30 May 2010 06:46:13
"This file is neither allocated to a Premium Account, or a Collector's Account, and can therefore only be downloaded 10 times." :-(((((((((((((

Collector's Account is free and easy to deal with...! (???)
Posted By: wolfywoody Date: 30 May 2010 07:03:06
Thank you very much but can't download these files!
Reup please.
Posted By: rosso2 Date: 30 May 2010 08:21:45
What a wonderful upload!!!
Reup please
Posted By: hammck Date: 30 May 2010 09:16:17
All files should be now re-active, sorry about that.!
Posted By: waldstein Date: 30 May 2010 10:44:43
You can find customers reviews on Amazon:
Symphonies No. 2 & 3 - http://www.amazon.com/Brahms-Symphonies-Nos-2-3/dp/B000005WG0/ref=sr_1_14?ie=UTF8&s=music&qid=1275216077&sr=1-14
Symphony No. 4 - http://www.amazon.com/Brahms-Symphony-No-4-Johannes/dp/B000005WG1/ref=sr_1_24?ie=UTF8&s=music&qid=1275216077&sr=1-24
Posted By: pstrg Date: 30 May 2010 13:57:25
Thanks for this marvelous Sunday!
I still remember his personal self-effacing warmth on a couple of unforgettable concerts I attended long ago.
Was entirely unaware of this treat.

p.s. A tech detail: all links are like "*.rar.html"; iIf they were simply like "*.rar" Firefox DownThemAll would be able to grab them altogether. Of course it was quite simple to edit the page source, though.
Posted By: Anywhere2007 Date: 30 May 2010 19:43:58
This is absolutely marvelous! Thanks! BTW, does anybody have Barbirolli's Tchaikovsky's Symphony No.5 with the Hallé Orchestra to share? I've been looking for it for years!
Posted By: DownloadFanatic Date: 30 May 2010 21:51:19
GREAT to find this recording here!!
Is there someone who could share Bach's Branderburger Concerto's by Barbirolli here??
THNX!!
Posted By: SpacedmanSpleef Date: 31 May 2010 06:58:09
Wow, thanks! I can't wait to hear this!
Posted By: mozart90 Date: 04 Jun 2010 03:29:21
Thank you!!
Posted By: norminfo Date: 11 Jun 2010 22:28:33
Big Thanks, the best interpretation of Brahms Symphonies.
Posted By: Goodspeed Date: 21 Jun 2010 08:41:44
Stellar post! Many thanks for sharing.
Posted By: jazzever Date: 08 Aug 2010 14:10:17
Fantasctic job hammck, much appreciate,thank you!
Posted By: farol Date: 28 Sep 2010 17:45:31
Just seen this post - WOW! Delighted to see these recordings which seem to be available nowhere. Many thanks!
Posted By: billinrio Date: 25 Nov 2010 17:12:20
Listening to the current mode for "original" performances a la Gardiner convinces me that Sir John already had it very, very right in the 60's. Many thanks for this fantastic post.
Posted By: Roberto56 Date: 21 Jul 2012 23:42:09
Thank you so much for these jewels!