Loading...

Francesco Maria Veracini - Sonate accademiche, op. 2 - Locatelli Trio

Posted By : zamorna | Date : 14 Nov 2009 13:00:24 | Comments : 4 |
|



Francesco Maria Veracini - Sonate accademiche, Op. 2
Classical, Baroque | 3 CDs | EAC | FLAC, CUE, LOG | Scans | 944 MB | Rapidshare
Recorded: 25-30 June 1993 | Released: 2007 [1995]| Label: Hyperion CDS44241/3 | TT: 175:42
The Locatelli Trio (Elizabeth Wallfisch - violin, Richard Tunnicliffe - cello, Paul Nicholson - harpsichord/organ)

Baroque violin virtuoso Francesco Maria Veracini, though hardly a household name, led a storied life. He went mad for a time (perhaps due to his dabbles in alchemy, or even a plot by his rivals), he once fell (or perhaps jumped ... or was pushed) from an upper-story window, and he lost his prized matched pair of Stainer violins with which he entertained the cream of London society in a shipwreck in the English Channel.

As it turns out, he was also a fine composer, and his 12 Sonate accademiche, Op. 2, are performed on this three-disc Hyperion set by the Locatelli Trio - violinist Elizabeth Wallfisch, cellist Richard Tunnicliffe, and harpsichordist/organist Paul Nicholson. No two Veracini sonatas are the same - the First in D major is in five movements - Toccata, Capriccio Primo, Allegro, Epilogo della Toccata, and Capriccio Secondo - the Eighth in E minor is in three movements - Allegro, Ritornello, and Giga - while the Twelfth is in four movements - Passagallo, Capriccio cromatico, Adagio, and Ciaconna - but every one is wildly inventive, intensely emotive, tremendously difficult, and, in these performances, brilliantly executed. Elizabeth Wallfisch is one of the great period violin players with an expressive tone and an awe-inspiring technique, and she takes on Veracini's most challenging double and triple stops without dropping a note. Expertly accompanied by the big-toned Tunnicliffe and the tasteful Nicholson - check out his organ work in the Twelfth's Passagallo - Wallfisch's performances are as stunningly original as the works themselves, and anyone interested in Italian Baroque violin music should not hesitate. Hyperion's 1993 digital sound is a bit close, but nicely so. (James Leonard, All Music Guide)


Tracklist:

CD 1:
01-05 Sonata No. 1 in D major
06-10 Sonata No. 2 in B flat major
11-14 Sonata No. 3 in G major
15-18 Sonata No. 4 in F major

CD 2:
01-04 Sonata No. 5 in G minor
05-09 Sonata No. 6 in A major
10-13 Sonata No. 7 in D minor
14-16 Sonata No. 8 in E minor

CD 3:
01-03 Sonata No. 9 in A major
04-06 Sonata No. 10 in F major
07-10 Sonata No. 11 in E major
11-14 Sonata No. 12 in D minor


EAC LOG CD 1
Exact Audio Copy V0.99 prebeta 5 from 4. May 2009

EAC extraction logfile from 13. November 2009, 17:13

The Locatelli Trio / VERACINI Sonate accademiche, Op 2 - CD1

Used drive : HL-DT-STDVDRAM GSA-T50N Adapter: 0 ID: 1

Read mode : Secure
Utilize accurate stream : Yes
Defeat audio cache : Yes
Make use of C2 pointers : No

Read offset correction : 667
Overread into Lead-In and Lead-Out : No
Fill up missing offset samples with silence : Yes
Delete leading and trailing silent blocks : No
Null samples used in CRC calculations : Yes
Used interface : Native Win32 interface for Win NT & 2000

Used output format : User Defined Encoder
Selected bitrate : 1024 kBit/s
Quality : High
Add ID3 tag : No
Command line compressor : C:\Program Files\Exact Audio Copy\FLAC\FLAC.EXE
Additional command line options : -6 -V -T "ARTIST=%a" -T "TITLE=%t" -T "ALBUM=%g" -T "DATE=%y" -T "TRACKNUMBER=%n" -T "GENRE=%m" -T "COMMENT=%e" %s -o %d


TOC of the extracted CD

Track | Start | Length | Start sector | End sector
---------------------------------------------------------
1 | 0:00.00 | 4:30.42 | 0 | 20291
2 | 4:30.42 | 5:13.48 | 20292 | 43814
3 | 9:44.15 | 2:14.32 | 43815 | 53896
4 | 11:58.47 | 3:26.60 | 53897 | 69406
5 | 15:25.32 | 3:54.00 | 69407 | 86956
6 | 19:19.32 | 5:25.63 | 86957 | 111394
7 | 24:45.20 | 3:42.02 | 111395 | 128046
8 | 28:27.22 | 3:36.15 | 128047 | 144261
9 | 32:03.37 | 2:07.60 | 144262 | 153846
10 | 34:11.22 | 1:07.65 | 153847 | 158936
11 | 35:19.12 | 3:49.60 | 158937 | 176171
12 | 39:08.72 | 3:10.33 | 176172 | 190454
13 | 42:19.30 | 5:39.65 | 190455 | 215944
14 | 47:59.20 | 2:44.67 | 215945 | 228311
15 | 50:44.12 | 3:17.68 | 228312 | 243154
16 | 54:02.05 | 4:43.50 | 243155 | 264429
17 | 58:45.55 | 2:34.62 | 264430 | 276041
18 | 61:20.42 | 3:46.19 | 276042 | 293010


Range status and errors

Selected range

Filename C:\The Locatelli Trio - VERACINI Sonate accademiche, Op 2 - CD1.wav

Peak level 98.5 %
Range quality 100.0 %
Test CRC E0BE8167
Copy CRC E0BE8167
Copy OK

No errors occurred


AccurateRip summary

Track 1 not present in database
Track 2 not present in database
Track 3 not present in database
Track 4 not present in database
Track 5 not present in database
Track 6 not present in database
Track 7 not present in database
Track 8 not present in database
Track 9 not present in database
Track 10 not present in database
Track 11 not present in database
Track 12 not present in database
Track 13 not present in database
Track 14 not present in database
Track 15 not present in database
Track 16 not present in database
Track 17 not present in database
Track 18 not present in database

None of the tracks are present in the AccurateRip database

End of status report

EAC LOG CD 2
Exact Audio Copy V0.99 prebeta 5 from 4. May 2009

EAC extraction logfile from 13. November 2009, 17:52

The Locatelli Trio / VERACINI Sonate accademiche, Op 2 - CD2

Used drive : HL-DT-STDVDRAM GSA-T50N Adapter: 0 ID: 1

Read mode : Secure
Utilize accurate stream : Yes
Defeat audio cache : Yes
Make use of C2 pointers : No

Read offset correction : 667
Overread into Lead-In and Lead-Out : No
Fill up missing offset samples with silence : Yes
Delete leading and trailing silent blocks : No
Null samples used in CRC calculations : Yes
Used interface : Native Win32 interface for Win NT & 2000

Used output format : User Defined Encoder
Selected bitrate : 1024 kBit/s
Quality : High
Add ID3 tag : No
Command line compressor : C:\Program Files\Exact Audio Copy\FLAC\FLAC.EXE
Additional command line options : -6 -V -T "ARTIST=%a" -T "TITLE=%t" -T "ALBUM=%g" -T "DATE=%y" -T "TRACKNUMBER=%n" -T "GENRE=%m" -T "COMMENT=%e" %s -o %d


TOC of the extracted CD

Track | Start | Length | Start sector | End sector
---------------------------------------------------------
1 | 0:00.00 | 5:11.40 | 0 | 23364
2 | 5:11.40 | 5:04.45 | 23365 | 46209
3 | 10:16.10 | 2:33.32 | 46210 | 57716
4 | 12:49.42 | 2:45.10 | 57717 | 70101
5 | 15:34.52 | 2:33.73 | 70102 | 81649
6 | 18:08.50 | 4:58.22 | 81650 | 104021
7 | 23:06.72 | 4:35.08 | 104022 | 124654
8 | 27:42.05 | 4:39.02 | 124655 | 145581
9 | 32:21.07 | 3:33.45 | 145582 | 161601
10 | 35:54.52 | 3:11.28 | 161602 | 175954
11 | 39:06.05 | 2:39.32 | 175955 | 187911
12 | 41:45.37 | 2:17.55 | 187912 | 198241
13 | 44:03.17 | 3:01.33 | 198242 | 211849
14 | 47:04.50 | 4:02.32 | 211850 | 230031
15 | 51:07.07 | 4:17.58 | 230032 | 249364
16 | 55:24.65 | 2:33.21 | 249365 | 260860


Range status and errors

Selected range

Filename C:\The Locatelli Trio - VERACINI Sonate accademiche, Op 2 - CD2.wav

Peak level 96.2 %
Range quality 100.0 %
Test CRC 33742D44
Copy CRC 33742D44
Copy OK

No errors occurred


AccurateRip summary

Track 1 not present in database
Track 2 not present in database
Track 3 not present in database
Track 4 not present in database
Track 5 not present in database
Track 6 not present in database
Track 7 not present in database
Track 8 not present in database
Track 9 not present in database
Track 10 not present in database
Track 11 not present in database
Track 12 not present in database
Track 13 not present in database
Track 14 not present in database
Track 15 not present in database
Track 16 not present in database

None of the tracks are present in the AccurateRip database

End of status report

EAC LOG CD 3
Exact Audio Copy V0.99 prebeta 5 from 4. May 2009

EAC extraction logfile from 13. November 2009, 18:19

The Locatelli Trio / VERACINI Sonate accademiche, Op 2 - CD3

Used drive : HL-DT-STDVDRAM GSA-T50N Adapter: 0 ID: 1

Read mode : Secure
Utilize accurate stream : Yes
Defeat audio cache : Yes
Make use of C2 pointers : No

Read offset correction : 667
Overread into Lead-In and Lead-Out : No
Fill up missing offset samples with silence : Yes
Delete leading and trailing silent blocks : No
Null samples used in CRC calculations : Yes
Used interface : Native Win32 interface for Win NT & 2000

Used output format : User Defined Encoder
Selected bitrate : 1024 kBit/s
Quality : High
Add ID3 tag : No
Command line compressor : C:\Program Files\Exact Audio Copy\FLAC\FLAC.EXE
Additional command line options : -6 -V -T "ARTIST=%a" -T "TITLE=%t" -T "ALBUM=%g" -T "DATE=%y" -T "TRACKNUMBER=%n" -T "GENRE=%m" -T "COMMENT=%e" %s -o %d


TOC of the extracted CD

Track | Start | Length | Start sector | End sector
---------------------------------------------------------
1 | 0:00.00 | 3:53.52 | 0 | 17526
2 | 3:53.52 | 0:38.60 | 17527 | 20436
3 | 4:32.37 | 5:31.70 | 20437 | 45331
4 | 10:04.32 | 3:00.20 | 45332 | 58851
5 | 13:04.52 | 3:09.68 | 58852 | 73094
6 | 16:14.45 | 4:09.62 | 73095 | 91831
7 | 20:24.32 | 5:19.50 | 91832 | 115806
8 | 25:44.07 | 3:50.30 | 115807 | 133086
9 | 29:34.37 | 4:28.33 | 133087 | 153219
10 | 34:02.70 | 3:51.40 | 153220 | 170584
11 | 37:54.35 | 3:36.02 | 170585 | 186786
12 | 41:30.37 | 3:30.03 | 186787 | 202539
13 | 45:00.40 | 1:42.62 | 202540 | 210251
14 | 46:43.27 | 5:48.66 | 210252 | 236417


Range status and errors

Selected range

Filename C:\The Locatelli Trio - VERACINI Sonate accademiche, Op 2 - CD3.wav

Peak level 97.7 %
Range quality 100.0 %
Test CRC E13F0FF0
Copy CRC E13F0FF0
Copy OK

No errors occurred


AccurateRip summary

Track 1 not present in database
Track 2 not present in database
Track 3 not present in database
Track 4 not present in database
Track 5 not present in database
Track 6 not present in database
Track 7 not present in database
Track 8 not present in database
Track 9 not present in database
Track 10 not present in database
Track 11 not present in database
Track 12 not present in database
Track 13 not present in database
Track 14 not present in database

None of the tracks are present in the AccurateRip database

End of status report





ADVERTISING » Very Fast Download! « ADVERTISING


Posted By: Kraehe Date: 14 Nov 2009 16:17:05
Thanks for this! =)
Posted By: Blue61 Date: 15 Nov 2009 01:59:13
Thank you very much from Spain.
Muchas gracias !!!
Posted By: acaciatree Date: 17 Nov 2009 20:57:31
Thank you so much. Regards from latitude 33.
Posted By: Igone Date: 09 Mar 2010 00:32:35
Thanks for the uploed but .... RS links are removed by the uploader