Loading...

Martha Argerich - Piano Concertos by Beethoven & Mozart (Ozawa/Jochum, 2009 release)

Posted By : wursthans | Date : 29 Oct 2009 05:59:02 | Comments : 6 |
|



Martha Argerich - Piano Concertos by Beethoven & Mozart (Ozawa/Jochum, 2009 release)
Genre: Classical Piano Concerto | 1 CD | EAC & FLAC (CUE+LOG) | Complete Covers & PDF | 308 MB
1983 & 1973 recordings, 2009 release | Publisher: BR-KLASSIK ARCHIVE 4035719007015
RapidShare


Works/Tracks:

1. (00:14:12) Piano Concerto No. 1 in C, op. 15: I. Allegro con brio
2. (00:10:57) Piano Concerto No. 1 in C, op. 15: II. Largo
3. (00:08:57) Piano Concerto No. 1 in C, op. 15: III. Rondo. Allegro scherzando
4. (00:12:06) Piano Concerto No. 18 in B, KV 456: I. Allegro vivace
5. (00:10:02) Piano Concerto No. 18 in B, KV 456: II. Andante un poco sostenuto
6. (00:07:26) Piano Concerto No. 18 in B, KV 456: III. Allegro vivace

Performers:

Martha Argerich & Symphonieorchester des Bayerischen Rundfunks
Seiji Ozawa (Beethoven) & Eugen Jochum (Mozart)

EAC LOG
Exact Audio Copy V0.99 prebeta 5 from 4. May 2009

EAC extraction logfile from 28. October 2009, 21:15

Martha Argerich & Symphonieorchester des Bayerischen Rundfunks / Piano Concertos by Beethoven & Mozart

Used drive : PLEXTOR CD-R PREMIUM2 Adapter: 3 ID: 0

Read mode : Secure
Utilize accurate stream : Yes
Defeat audio cache : Yes
Make use of C2 pointers : No

Read offset correction : 30
Overread into Lead-In and Lead-Out : Yes
Fill up missing offset samples with silence : Yes
Delete leading and trailing silent blocks : No
Null samples used in CRC calculations : Yes
Used interface : Native Win32 interface for Win NT & 2000
Gap handling : Appended to previous track

Used output format : User Defined Encoder
Selected bitrate : 128 kBit/s
Quality : High
Add ID3 tag : No
Command line compressor : D:\Programme\EAC099\Flac\flac.exe
Additional command line options : -5 -V -T "ARTIST=%a" -T "TITLE=%t" -T "ALBUM=%g" -T "DATE=%y" -T "TRACKNUMBER=%n" -T "TOTALTRACKS=%x" -T "GENRE=%m" -T "ALBUM ARTIST=%v" -T "ALBUMARTIST=%v" -T "COMMENT=EAC V0.99 prebeta 5, Secure Mode, Test & Copy, Accurat


TOC of the extracted CD

Track | Start | Length | Start sector | End sector
---------------------------------------------------------
1 | 0:00.00 | 14:12.26 | 0 | 63925
2 | 14:12.26 | 10:57.16 | 63926 | 113216
3 | 25:09.42 | 8:57.08 | 113217 | 153499
4 | 34:06.50 | 12:05.63 | 153500 | 207937
5 | 46:12.38 | 10:01.71 | 207938 | 253083
6 | 56:14.34 | 7:25.55 | 253084 | 286513


Track 1

Filename E:\Share\Classical\Collections\Martha Argerich - Beethoven 1 & Mozart 18 (2009) [FLAC] {BR-Klassik Archive 403571900701}\01 - [LvB1] I. Allegro con brio.wav

Pre-gap length 0:00:02.00

Peak level 84.2 %
Track quality 100.0 %
Test CRC AAD216CE
Copy CRC AAD216CE
Track not present in AccurateRip database
Copy OK

Track 2

Filename E:\Share\Classical\Collections\Martha Argerich - Beethoven 1 & Mozart 18 (2009) [FLAC] {BR-Klassik Archive 403571900701}\02 - [LvB1] II. Largo.wav

Pre-gap length 0:00:04.86

Peak level 52.9 %
Track quality 100.0 %
Test CRC 1A45950E
Copy CRC 1A45950E
Track not present in AccurateRip database
Copy OK

Track 3

Filename E:\Share\Classical\Collections\Martha Argerich - Beethoven 1 & Mozart 18 (2009) [FLAC] {BR-Klassik Archive 403571900701}\03 - [LvB1] III. Rondo. Allegro scherzando.wav

Peak level 97.7 %
Track quality 100.0 %
Test CRC 12B861BA
Copy CRC 12B861BA
Track not present in AccurateRip database
Copy OK

Track 4

Filename E:\Share\Classical\Collections\Martha Argerich - Beethoven 1 & Mozart 18 (2009) [FLAC] {BR-Klassik Archive 403571900701}\04 - [WAM18] I. Allegro vivace.wav

Pre-gap length 0:00:08.69

Peak level 56.1 %
Track quality 100.0 %
Test CRC 70E9D830
Copy CRC 70E9D830
Track not present in AccurateRip database
Copy OK

Track 5

Filename E:\Share\Classical\Collections\Martha Argerich - Beethoven 1 & Mozart 18 (2009) [FLAC] {BR-Klassik Archive 403571900701}\05 - [WAM18] II. Andante un poco sostenuto.wav

Pre-gap length 0:00:05.62

Peak level 48.7 %
Track quality 100.0 %
Test CRC 260EF907
Copy CRC 260EF907
Track not present in AccurateRip database
Copy OK

Track 6

Filename E:\Share\Classical\Collections\Martha Argerich - Beethoven 1 & Mozart 18 (2009) [FLAC] {BR-Klassik Archive 403571900701}\06 - [WAM18] III. Allegro vivace.wav

Pre-gap length 0:00:03.37

Peak level 58.2 %
Track quality 100.0 %
Test CRC 096BF261
Copy CRC 096BF261
Track not present in AccurateRip database
Copy OK


None of the tracks are present in the AccurateRip database

No errors occurred

End of status report



Recording Information:

conducted by Ozawa (Beethoven) & Eugen Jochum (Mozart)
recorded in 1983 (Beethoven) & 1973 (Mozart)

released in 2009
BR-Klassik Archive
403571900701


Reviews:

Sensational, grandiose, stellar – these adjectives are used in the review below to characterize a concert performance by Martha Argerich. Well, one could add another – rare, for the diva of the keyboard all too often skips concerts on short notice, sometimes even when the audience is on the way or in the hall.
Even more important that some radio stations are browsing through their vaults. This disc comes from the Bavarian Radio Station, the same one that recorded her now famous performance of the Tchaikovsky 1 in 1983, which was issued on Philips Classics.
While Argerich performed the Beethoven 1 rather often, the real gem in this collection is the Mozart concerto. Afaik, she only performs five of Mozart solo piano concertos, and KV 456 was only recorded in 1973. Strange, in my opinion, as Mozart's exuberant music should suite Argerich's playing just fine.
I was rather suprised to find out that it doesn't really click on this one. It is a better performance than a lot of others, but it certainly is NOT a typical Argerich recording. Still, there are some fine moments on it, and this might be the only recording available. Enjoy.


A concert by Martha Argerich is always sensational, sometimes
grandiose, and occasionally the audience experiences a truly stellar event. Going through the archives of Bavarian Broadcasting, the feeling was unanimous, and many “ear witnesses” themselves remembered the concerts: on these evenings Argerich was in top form, collaborated with two congenial conductors, inspired the orchestra and drew inspiration from it. In short: these live recordings should, indeed must be heard! Especially with this artist, the medium of live recording is especially valuable. Before an audience in the sold-out hall, there developed a knack for communication and spontaneous music-making with a downright personal appeal to the listener.
For the Mozart concerto, Eugen Jochum mounted the podium of the Symphonieorchester des Bayerischen Rundfunks. He had a special
relationship with the orchestra, having been the first chief conductor of the newly founded ensemble since 1949, a position he held until 1960. Seiji Ozawa was and is regularly heard as a guest conductor in Munich, where audiences look forward to his return in the 2009/2010 season. After the concert evening in June of 1983 the audience and reviewers were unanimous in their enthusiasm, as attested by the Abendzeitung: “Martha Argerich, currently in the form of her life, played (…) with inimitable fire without forgetting intimacy, sensitivity and expression.”




PW: malvbwam

Download:

Rapidshare

ADVERTISING » Click here to download Ebooks/Magazines for free « ADVERTISING


Posted By: csi Date: 29 Oct 2009 06:49:13
Thank you for this release. Also looking forward to the continuation of Rubinstein Collection and Haydn Symphonies series.
Posted By: chmilu Date: 29 Oct 2009 08:52:46
Thanks, and I like your uploads very much.
Posted By: Zhiliang2929 Date: 29 Oct 2009 11:57:51
Thank you so much for this new cd. Thanks a million
Posted By: DanseDePuck Date: 29 Oct 2009 22:15:56
Heard a lot about this CD. I have the Mozart under Jochum from an old Melodram box, bought ages and ages ago. And the Beethoven/Ozawa was a VHS at some stage. Great to have both on this new release.
Posted By: w2003 Date: 06 Nov 2009 16:33:33
thank you!
Posted By: istrider Date: 25 Nov 2009 01:27:22
Amazing album (as usual!!). Thank you so much for posting this, wursthans!