Loading...

John Cage - Daughters of the Lonesome Isle - Margaret Leng Tan (1994)

Posted By : basa005 | Date : 27 Jan 2010 11:32:55 | Comments : 7 |
|



John Cage - Daughters of the Lonesome Isle - Margaret Leng Tan (1994)
EAC RIP | APE + CUE + LOG | COVER+BOOK | RAR FILES (3% recovery)| 248 Mb
Classical | New Albion Records NA070CD




Tracklist:
1 Bacchanale 6:38
2 In A Landscape 7:46
3 Daughters Of The Lonesome Isle 8:51
The Seasons
4 Prelude I 1:28
5 Winter 1:20
6 Prelude II 0:47
7 Spring 2:15
8 Prelude III 1:34
9 Summer 3:15
10 Prelude IV 0:53
11 Fall 2:24
12 Finale (Prelude I) 0:56
Suite For Toy Piano
13 1 1:35
14 2 1:41
15 3 1:34
16 4 1:24
17 5 1:04
18 Ophelia 6:34
In The Name Of The Holocaust
19 A. 3'36'' 3:37
20 B. 2'21'' 2:22
21 Music For Piano #2 11:57
Arranged By - Margaret Leng Tan

Credits
Artwork By [Cover Artist] - Michelle Laporte
Artwork By [Design] - Flying Fish
Composed By - John Cage
Engineer - Tom Lazarus
Photography [Cover] - Jack Vartoogian
Photography [John Cage And Margaret Leng Tan] - George Hirose
Piano, Toy [Toy Piano], Other [Liner Notes] - Margaret Leng Tan
Producer - Foster Reed

Notes
Recorded at the Amercan Academy and Institute of Arts and Letters, New York, December 1993.
Edited at Harmonic Ranch, New York.
Digitally mastered at Classic Sound, Inc., New York.
Bacchanale (1940) for prepared piano
In A Landscape (1948) for piano
Daughters Of The Lonesome Isle (1945) for prepared piano
The Seasons (1947) for piano (Ballet in One Act)
Suite For Toy Piano (1948)
Ophelia (1946) for piano
In The Name Of Holocaust (1942) for string piano
Music For Piano #2 (1953) arranged for bowed piano


EAC LOG

Exact Audio Copy V0.99 prebeta 4 from 23. January 2008

Estrazione File Di Log EAC Del 26. Gennaio 2010, 14:46

John Cage / Daughter of the Lonesome Isle

Unità Predefinita: ATAPI DVD A DH16A1L Adapter: 1 ID: 0

Modalità Di Lettura: : Sicura
Utilizza Lettura Accurata : Sì
Disattiva Cache Audio : No
Rileva Errori Lettura C2 : Sì

Correzione Offset Di Lettura: : 6
Sovrascrivi Anche Nel Lead-In E Lead-Out : No
Riempi Sample Offset Mancanti Con Silenzio : Sì
Rimuovi Blocchi Di Silenzio Ad Inizio E Fine Traccia : No
Usa I Sample Nulli Nel Calcolo CRC : Sì
Interfaccia Usata : Interfaccia Nativa Win32 Per Windows NT & 2000

Formato Di Destinazione Scelto: : Routine Interne WAV
Formato Sample : 44.100 Hz; 16 Bit; Stereo


TOC Del CD Estratto

Traccia | Inizio | Lunghezza | Inizio Settore | Fine Settore
----------------------------------------------------------------
1 | 0:00.00 | 6:46.52 | 0 | 30501
2 | 6:46.52 | 7:49.28 | 30502 | 65704
3 | 14:36.05 | 8:54.00 | 65705 | 105754
4 | 23:30.05 | 1:28.67 | 105755 | 112421
5 | 24:58.72 | 1:20.13 | 112422 | 118434
6 | 26:19.10 | 0:47.70 | 118435 | 122029
7 | 27:07.05 | 2:15.45 | 122030 | 132199
8 | 29:22.50 | 1:34.72 | 132200 | 139321
9 | 30:57.47 | 3:15.53 | 139322 | 153999
10 | 34:13.25 | 0:53.17 | 154000 | 157991
11 | 35:06.42 | 2:24.58 | 157992 | 168849
12 | 37:31.25 | 0:56.27 | 168850 | 173076
13 | 38:27.52 | 1:35.63 | 173077 | 180264
14 | 40:03.40 | 1:41.30 | 180265 | 187869
15 | 41:44.70 | 1:34.10 | 187870 | 194929
16 | 43:19.05 | 1:24.70 | 194930 | 201299
17 | 44:44.00 | 1:04.32 | 201300 | 206131
18 | 45:48.32 | 6:43.48 | 206132 | 236404
19 | 52:32.05 | 3:37.32 | 236405 | 252711
20 | 56:09.37 | 2:22.45 | 252712 | 263406
21 | 58:32.07 | 11:53.13 | 263407 | 316894


Stato Intervallo Ed Errori

Intervallo Selezionato

Nome File C:\avaxhome\John Cage - Daughter of the Lonesome Isle.wav

Livello Di Picco 100.0 %
Qualità Intervallo 100.0 %
Copia CRC 7002254E
Copia Corretta

Non Sono Stati Riscontrati Errori


Sommario Accuraterip

Traccia 1 Non Presente Nel Database
Traccia 2 Non Presente Nel Database
Traccia 3 Non Presente Nel Database
Traccia 4 Non Presente Nel Database
Traccia 5 Non Presente Nel Database
Traccia 6 Non Presente Nel Database
Traccia 7 Non Presente Nel Database
Traccia 8 Non Presente Nel Database
Traccia 9 Non Presente Nel Database
Traccia 10 Non Presente Nel Database
Traccia 11 Non Presente Nel Database
Traccia 12 Non Presente Nel Database
Traccia 13 Non Presente Nel Database
Traccia 14 Non Presente Nel Database
Traccia 15 Non Presente Nel Database
Traccia 16 Non Presente Nel Database
Traccia 17 Non Presente Nel Database
Traccia 18 Non Presente Nel Database
Traccia 19 Non Presente Nel Database
Traccia 20 Non Presente Nel Database
Traccia 21 Non Presente Nel Database

Nessuna Delle Tracce è Presente Nel Database AccurateRip

Fine Del Resoconto Di Stato


download:
part 1
part 2
part 3

ADVERTISING » Very Fast Download! « ADVERTISING


Posted By: ivory-d Date: 27 Jan 2010 16:33:42
Thank you, basa005! Your posts in recent days have been especially wonderful.
Posted By: denegado Date: 27 Jan 2010 18:32:29
Thank you very much!!
Posted By: polyphonicformat Date: 27 Jan 2010 18:32:38
Thanks from me too! While I'm not particularly fond of Cage's work (with some exceptions), Margaret Leng Tan is IMHO an underrated pianist. Good to see this recording.
Posted By: aldebaran1 Date: 27 Jan 2010 19:53:46
I bought this long time ago, a good Cage cd; Margaret Leng playing Ophelia is great, however
there's a more delicate and subtle Leng Tan (just listen to the "Litania"-Somei Satoh- cd, one
of my most treasured item).
thanks anyway basa005!
Posted By: peachfuzz Date: 28 Jan 2010 01:17:26
Ahh, you're forever spoiling us brats. I say that's a work of art in itself. Thanks!
Posted By: ooliver Date: 28 Jan 2010 11:08:38
Thanks for upgrading my lossy copy
Posted By: Blue61 Date: 29 Jan 2010 01:23:08
Thank you very much from Spain.
Muchas gracias !!!