Loading...

Willie Lomax Blues Revue - Ribs Are Ready (1999)

Posted By : countryfreak | Date : 21 Aug 2012 10:31:06 | Comments : 2 |
|



Willie Lomax Blues Revue - Ribs Are Ready (1999)
EAC Rip | FLAC (Image) + CUE + LOG | Covers | 444 MB
Genre: Blues/Soul-Blues | Label: Big Boss Records | Catalog Number: 9900
RAR 5% Rec. | FilePost + Rapidshare | Release Date: March 9, 1999

One of the brightest talents on the contemporary blues scene, guitarist Willie Lomax is an intelligent songwriter who brings a sharp and fresh voice to his blues-based songs, while managing at the same time to ground them in the rich blues history of the past. Lomax's tunes don't sound written so much as newly unearthed, and a lot of the credit should go, as well, to singer Shawn Brown, whose Memphis-styled vocals (and his Hammond B-3 playing) on this album are a revelation. With soulful blues numbers like "For Better or Worse" and "Take Away Your Loneliness," funky roadhouse romps like "Eddie Mae's Café," or the elegant soul-jazz of "Struttin'," Ribs Are Ready falls neatly as an interim step between the more straight-ahead blues of Lomax's first album, Give Me Back My Teeth, and the impressive soul-blues of his third, Best Blues Money Can Buy.--by Steve Leggett


------------
Tracklist
------------
1. Back Rub 3:30
2. Don't Know What I Did 6:06
3. For Better Or Worse 4:55
4. Too Many Fences 7:04
5. People Get Ready 4:41
6. Ribs Are Ready 3:07
7. Eddie Mae's Cafe 3:48
8. She's So Sweet 4:06
9. Hip Joint 3:19
10. Don't Fight The Feeling 3:35
11. Struttin' 2:56
12. Take Away Your Loneliness 5:00
13. I Want To Show You 4:47
14. Freedom Is In Your Heart 4:11
15. Too Many Fences (radio edit) 4:23



EAC LOG
Exact Audio Copy V1.0 beta 3 from 29. August 2011

EAC extraction logfile from 13. August 2012, 13:42

Willie Lomax Blues Revue / Ribs Are Ready

Used drive : ASUS DRW-24B1LT Adapter: 3 ID: 0

Read mode : Secure
Utilize accurate stream : Yes
Defeat audio cache : Yes
Make use of C2 pointers : No

Read offset correction : 6
Overread into Lead-In and Lead-Out : No
Fill up missing offset samples with silence : Yes
Delete leading and trailing silent blocks : No
Null samples used in CRC calculations : Yes
Used interface : Native Win32 interface for Win NT & 2000

Used output format : User Defined Encoder
Selected bitrate : 1024 kBit/s
Quality : High
Add ID3 tag : Yes
Command line compressor : C:\Program Files\Exact Audio Copy\Flac\flac.exe
Additional command line options : -6 -V -T "ARTIST=%artist%" -T "TITLE=%title%" -T "ALBUM=%albumtitle%" -T "DATE=%year%" -T "TRACKNUMBER=%tracknr%" -T "GENRE=%genre%" -T "COMMENT=%comment%" %hascover%--picture="%coverfile%"%hascover% %source% -o %dest%


TOC of the extracted CD

Track | Start | Length | Start sector | End sector
---------------------------------------------------------
1 | 0:00.00 | 3:30.57 | 0 | 15806
2 | 3:30.57 | 6:06.38 | 15807 | 43294
3 | 9:37.20 | 4:55.12 | 43295 | 65431
4 | 14:32.32 | 7:04.73 | 65432 | 97304
5 | 21:37.30 | 4:41.30 | 97305 | 118409
6 | 26:18.60 | 3:07.52 | 118410 | 132486
7 | 29:26.37 | 3:48.53 | 132487 | 149639
8 | 33:15.15 | 4:06.45 | 149640 | 168134
9 | 37:21.60 | 3:19.65 | 168135 | 183124
10 | 40:41.50 | 3:35.67 | 183125 | 199316
11 | 44:17.42 | 2:56.28 | 199317 | 212544
12 | 47:13.70 | 5:00.55 | 212545 | 235099
13 | 52:14.50 | 4:47.40 | 235100 | 256664
14 | 57:02.15 | 4:11.10 | 256665 | 275499
15 | 61:13.25 | 4:23.00 | 275500 | 295224


Range status and errors

Selected range

Filename D:\MUSIK\BLUES\Willie Lomax Blues Revue - Ribs Are Ready [FLAC] (1999)\Willie Lomax Blues Revue - Ribs Are Ready.wav

Peak level 100.0 %
Extraction speed 7.9 X
Range quality 100.0 %
Copy CRC 150351EC
Copy OK

No errors occurred


AccurateRip summary

Track 1 cannot be verified as accurate (confidence 2) [FB7AD15A], AccurateRip returned [F6C36D20] (AR v2)
Track 2 cannot be verified as accurate (confidence 2) [D88B3A74], AccurateRip returned [DE600EA4] (AR v2)
Track 3 cannot be verified as accurate (confidence 2) [9C3438C5], AccurateRip returned [791EA96F] (AR v2)
Track 4 cannot be verified as accurate (confidence 2) [AEEDE19E], AccurateRip returned [CAA1674F] (AR v2)
Track 5 cannot be verified as accurate (confidence 2) [A68F5874], AccurateRip returned [9162ACC5] (AR v2)
Track 6 cannot be verified as accurate (confidence 2) [162F0C6A], AccurateRip returned [058BD165] (AR v2)
Track 7 cannot be verified as accurate (confidence 2) [E318ADC0], AccurateRip returned [5AD28D90] (AR v2)
Track 8 cannot be verified as accurate (confidence 2) [8E8C1BD6], AccurateRip returned [03891968] (AR v2)
Track 9 cannot be verified as accurate (confidence 2) [608B95DB], AccurateRip returned [30A568DD] (AR v2)
Track 10 cannot be verified as accurate (confidence 2) [B6F96CFC], AccurateRip returned [E6CCFC25] (AR v2)
Track 11 cannot be verified as accurate (confidence 2) [968F33A0], AccurateRip returned [2A338324] (AR v2)
Track 12 cannot be verified as accurate (confidence 2) [4E7BDA34], AccurateRip returned [34411BD1] (AR v2)
Track 13 cannot be verified as accurate (confidence 2) [B3EB6EFC], AccurateRip returned [5B479ACB] (AR v2)
Track 14 cannot be verified as accurate (confidence 2) [FB60ADDE], AccurateRip returned [8351E960] (AR v2)
Track 15 cannot be verified as accurate (confidence 2) [FBA83901], AccurateRip returned [A45F8F1B] (AR v2)

No tracks could be verified as accurate
You may have a different pressing from the one(s) in the database

End of status report

==== Log checksum EA3CDC4248ACB6C9CDF4B46D895C0AF775D5F4C9D6631FEABB6E6C2858373D36 ====


AllMusic

BIO: Willie Lomax was born and raised in Miami, FL, the son of a jazz drummer. He began playing trumpet at the age of nine, switching to guitar in his late teens, when he fell heavily under the spell of the blues. Lomax developed a soulful Southern guitar style, and with his sharp, incisive songwriting, he is one of the brightest talents on the contemporary blues scene. He has made his home since 1985 in Tampa, FL, where he also runs an independent blues label, Big Boss Records. His first album, Give Me Back My Teeth, was released on Big Boss Records in 1996, followed by Ribs Are Ready (which introduced the striking soul/blues singer Shawn Brown to the mix) in 1999. Best Blues Money Can Buy, again featuring Brown on vocals, was released in 2004.--by Steve Leggett


In case you encounter dead links in any of my posts, please send me a private message !!!!

NO mirrors and/or direct links in your comments, please !!!!

The files are interchangeable!

****Visit My Blog****

FilePost

Rapidshare

***** Pass: countryfreak *****
ADVERTISING » Very Fast Download! « ADVERTISING


Posted By: Mahone Date: 23 Aug 2012 13:07:41
Cool tunes indeed! Cheers for the share countryfreak!
Posted By: ReeferMadnessss Date: 26 Aug 2012 17:34:31
Thanks for this one too