Loading...

John Mayall - The Last Of The British Blues (1978)

Posted By : Designol | Date : 21 May 2013 19:20:11 | Comments : 1 |
|



John Mayall - The Last Of The British Blues (1978)
EAC | FLAC | Tracks (Cue&Log) ~ 292 Mb (incl 5%) | Mp3 (CBR320/Stereo) ~ 101 Mb (incl 5%) | Scans included
Genre: British Blues, Blues Rock | Label: One Way Records | # MCAD-22074 | Time: 00:40:25

This was the last of the six albums John Mayall originally made for Blue Thumb/ABC Records between 1975 and 1978, about which he has said, "ABC released six of my albums as a tax write-off. A week after they were released you couldn't find them in any store." It's a live album on which Mayall fronts a quartet consisting of guitarist James Quill Smith (who sings lead on several songs), bassist Steve Thompson, and drummer Soko Richardson. The approach is rock-oriented, and the set list includes such Bluesbreakers favorites as Mose Allison's "Parchman Farm," and Freddie King's "Hideaway" (taken at a frantic tempo), along with the usual complement of generic Mayall originals, among them, a remake of "The Bear," from Blues From Laurel Canyon.

Review by William Ruhlmann, Allmusic.com

Biography
Website
Wiki


Tracklist:

01. Tucson Lady (04:38)
02. Parchman Farm (04:03)
03. There's Only Now (04:03)
04. The Teaser (04:14)
05. Hideaway (03:17)
06. The Bear (04:43)
07. Lonely Birthday (03:54)
08. Lowdown Blues (04:42)
09. Another Man (02:16)
10. It Must Be Three (04:31)


EAC log
Exact Audio Copy V0.99 prebeta 5 from 4. May 2009

EAC extraction logfile from 21. July 2011, 21:23

John Mayall / The Last of the British Blues

Used drive : Optiarc DVD RW AD-7170A Adapter: 3 ID: 0

Read mode : Secure
Utilize accurate stream : Yes
Defeat audio cache : Yes
Make use of C2 pointers : No

Read offset correction : 48
Overread into Lead-In and Lead-Out : No
Fill up missing offset samples with silence : Yes
Delete leading and trailing silent blocks : No
Null samples used in CRC calculations : Yes
Used interface : Native Win32 interface for Win NT & 2000
Gap handling : Appended to previous track

Used output format : Internal WAV Routines
Sample format : 44.100 Hz; 16 Bit; Stereo


TOC of the extracted CD

Track | Start | Length | Start sector | End sector
---------------------------------------------------------
1 | 0:00.37 | 4:38.48 | 37 | 20934
2 | 4:39.10 | 4:03.40 | 20935 | 39199
3 | 8:42.50 | 4:03.02 | 39200 | 57426
4 | 12:45.52 | 4:14.10 | 57427 | 76486
5 | 16:59.62 | 3:17.15 | 76487 | 91276
6 | 20:17.02 | 4:43.33 | 91277 | 112534
7 | 25:00.35 | 3:54.05 | 112535 | 130089
8 | 28:54.40 | 4:42.25 | 130090 | 151264
9 | 33:36.65 | 2:16.15 | 151265 | 161479
10 | 35:53.05 | 4:31.50 | 161480 | 181854


Track 1

Filename G:\! Мастерская\В работе\John Mayall (flac)\John Mayall - 1978 - The Last Of The British Blues (1993, US) [MCAD-22074]\01. Tucson Lady.wav

Pre-gap length 0:00:02.37

Peak level 78.7 %
Track quality 100.0 %
Test CRC 9975999A
Copy CRC 9975999A
Track not present in AccurateRip database
Copy OK

Track 2

Filename G:\! Мастерская\В работе\John Mayall (flac)\John Mayall - 1978 - The Last Of The British Blues (1993, US) [MCAD-22074]\02. Parchman Farm.wav

Peak level 82.7 %
Track quality 100.0 %
Test CRC CC338AF2
Copy CRC CC338AF2
Track not present in AccurateRip database
Copy OK

Track 3

Filename G:\! Мастерская\В работе\John Mayall (flac)\John Mayall - 1978 - The Last Of The British Blues (1993, US) [MCAD-22074]\03. There's Only Now.wav

Peak level 79.7 %
Track quality 100.0 %
Test CRC FA7B35B5
Copy CRC FA7B35B5
Track not present in AccurateRip database
Copy OK

Track 4

Filename G:\! Мастерская\В работе\John Mayall (flac)\John Mayall - 1978 - The Last Of The British Blues (1993, US) [MCAD-22074]\04. The Teaser.wav

Peak level 88.6 %
Track quality 100.0 %
Test CRC 198F2293
Copy CRC 198F2293
Track not present in AccurateRip database
Copy OK

Track 5

Filename G:\! Мастерская\В работе\John Mayall (flac)\John Mayall - 1978 - The Last Of The British Blues (1993, US) [MCAD-22074]\05. Hideaway.wav

Peak level 82.0 %
Track quality 100.0 %
Test CRC 65EF0ABC
Copy CRC 65EF0ABC
Track not present in AccurateRip database
Copy OK

Track 6

Filename G:\! Мастерская\В работе\John Mayall (flac)\John Mayall - 1978 - The Last Of The British Blues (1993, US) [MCAD-22074]\06. The Bear.wav

Pre-gap length 0:00:00.60

Peak level 79.9 %
Track quality 100.0 %
Test CRC AE2C15A1
Copy CRC AE2C15A1
Track not present in AccurateRip database
Copy OK

Track 7

Filename G:\! Мастерская\В работе\John Mayall (flac)\John Mayall - 1978 - The Last Of The British Blues (1993, US) [MCAD-22074]\07. Lonely Birthday.wav

Peak level 72.8 %
Track quality 100.0 %
Test CRC AA9BD589
Copy CRC AA9BD589
Track not present in AccurateRip database
Copy OK

Track 8

Filename G:\! Мастерская\В работе\John Mayall (flac)\John Mayall - 1978 - The Last Of The British Blues (1993, US) [MCAD-22074]\08. Lowdown Blues.wav

Peak level 74.6 %
Track quality 100.0 %
Test CRC 06F228AD
Copy CRC 06F228AD
Track not present in AccurateRip database
Copy OK

Track 9

Filename G:\! Мастерская\В работе\John Mayall (flac)\John Mayall - 1978 - The Last Of The British Blues (1993, US) [MCAD-22074]\09. Another Man.wav

Peak level 66.5 %
Track quality 100.0 %
Test CRC 18687B7E
Copy CRC 18687B7E
Track not present in AccurateRip database
Copy OK

Track 10

Filename G:\! Мастерская\В работе\John Mayall (flac)\John Mayall - 1978 - The Last Of The British Blues (1993, US) [MCAD-22074]\10. It Must Be Three.wav

Peak level 77.2 %
Track quality 99.9 %
Test CRC 2B382ED1
Copy CRC 2B382ED1
Track not present in AccurateRip database
Copy OK


None of the tracks are present in the AccurateRip database

No errors occurred

End of status report

DR log
foobar2000 1.2 / Dynamic Range Meter 1.1.1
log date: 2013-05-21 22:07:07

--------------------------------------------------------------------------------
Analyzed: John Mayall / The Last of the British Blues
--------------------------------------------------------------------------------

DR Peak RMS Duration Track
--------------------------------------------------------------------------------
DR12 -2.08 dB -16.25 dB 4:39 01-Tucson Lady
DR12 -1.64 dB -15.88 dB 4:04 02-Parchman Farm
DR12 -1.97 dB -15.99 dB 4:03 03-There's Only Now
DR12 -1.04 dB -15.33 dB 4:14 04-The Teaser
DR11 -1.72 dB -14.77 dB 3:17 05-Hideaway
DR11 -1.94 dB -15.18 dB 4:43 06-The Bear
DR13 -2.76 dB -17.24 dB 3:54 07-Lonely Birthday
DR12 -2.54 dB -17.16 dB 4:42 08-Lowdown Blues
DR13 -3.54 dB -19.35 dB 2:16 09-Another Man
DR13 -2.25 dB -17.58 dB 4:32 10-It Must Be Three
--------------------------------------------------------------------------------

Number of tracks: 10
Official DR value: DR12

Samplerate: 44100 Hz
Channels: 2
Bits per sample: 16
Bitrate: 945 kbps
Codec: FLAC
================================================================================





ADVERTISING » Free Fast Download! « ADVERTISING


Posted By: parbelle Date: 11 Jun 2013 22:09:19
thank you to filsking and you for this fine post