Loading...

John Mayall - London Blues 1964-1969 (1992)

Posted By : v3122 | Date : 29 Apr 2010 16:43:38 | Comments : 8 |
|


John Mayall - London Blues 1964-1969 (1992)

John Mayall - London Blues 1964-1969 (1992)
2CD | Blues/Blues-Rock | EAC Rip | Flac (Tracks) + Cue + Log | MP3 CBR 320Kbps | 20 + 20 Tracks
Covers Included | Deram | 844 302-2 | ~787 + 322 Mb | RS.com + Uploading

John Mayall - Father of the British Blues...

More about John Mayall:

Tracklist CD1:

01. Crawling up a Hill
02. My Baby Is Sweeter - John Mayall, Dixon, Willie
03. Crocodile Walk
04. Blues City Shakedown
05. I'm Your Witchdoctor
06. Telephone Blues
07. Bernard Jenkins - John Mayall, Clapton, Eric
08. All Your Love - John Mayall, Dixon, Willie
09. Double Crossing Time - John Mayall, Clapton, Eric
10. Key to Love
11. Parchman Farm - John Mayall, Allison, Mose
12. Looking Back - John Mayall, Watson, Johnny
13. So Many Roads - John Mayall, Paul, Marshall
14. Sitting in the Rain
15. A Hard Road
16. Dust My Blues - John Mayall, James, Elmore
17. The Supernatural - John Mayall, Green, Peter
18. Another Kinda Love
19. Leaping Christine
20. Burn Out Your Blind Eyes

EAC Log
EAC extraction logfile from 19. May 2006, 0:53 for CD
John Mayall / London Blues 1964 1969 Disc 1

Used drive : JLMS DVD-ROM LTD-166S Adapter: 0 ID: 2
Read mode : Secure with NO C2, accurate stream, disable cache
Read offset correction : 12
Overread into Lead-In and Lead-Out : No

Used output format : Internal WAV Routines
44.100 Hz; 16 Bit; Stereo

Other options :
Fill up missing offset samples with silence : Yes
Delete leading and trailing silent blocks : No
Native Win32 interface for Win NT & 2000


Track 1
Filename C:\TEMP\01 - Crawling Up A Hill.wav

Pre-gap length 0:00:02.44

Peak level 89.5 %
Track quality 100.0 %
Test CRC 40AFE7BB
Copy CRC 40AFE7BB
Copy OK

Track 2
Filename C:\TEMP\02 - My Baby Is Sweeter.wav

Pre-gap length 0:00:04.72

Peak level 92.9 %
Track quality 100.0 %
Test CRC 6BE652D0
Copy CRC 6BE652D0
Copy OK

Track 3
Filename C:\TEMP\03 - Crocodile Walk.wav

Pre-gap length 0:00:05.69

Peak level 94.6 %
Track quality 99.9 %
Test CRC 8EE2483E
Copy CRC 8EE2483E
Copy OK

Track 4
Filename C:\TEMP\04 - Blues City Shakedown.wav

Pre-gap length 0:00:05.05

Peak level 87.6 %
Track quality 100.0 %
Test CRC 08FE54E7
Copy CRC 08FE54E7
Copy OK

Track 5
Filename C:\TEMP\05 - I'm Your Witchdoctor.wav

Pre-gap length 0:00:04.33

Peak level 88.3 %
Track quality 100.0 %
Test CRC E673ABE1
Copy CRC E673ABE1
Copy OK

Track 6
Filename C:\TEMP\06 - Telephone Blues.wav

Pre-gap length 0:00:05.48

Peak level 83.9 %
Track quality 99.9 %
Test CRC BC66962E
Copy CRC BC66962E
Copy OK

Track 7
Filename C:\TEMP\07 - Bernard Jenkins.wav

Pre-gap length 0:00:06.45

Peak level 80.8 %
Track quality 100.0 %
Test CRC 27AF8714
Copy CRC 27AF8714
Copy OK

Track 8
Filename C:\TEMP\08 - All Your Love.wav

Pre-gap length 0:00:05.82

Peak level 93.1 %
Track quality 100.0 %
Test CRC 77A01ECE
Copy CRC 77A01ECE
Copy OK

Track 9
Filename C:\TEMP\09 - Double Crossing Time.wav

Pre-gap length 0:00:06.08

Peak level 97.8 %
Track quality 100.0 %
Test CRC C2528D04
Copy CRC C2528D04
Copy OK

Track 10
Filename C:\TEMP\10 - Key To Love.wav

Pre-gap length 0:00:06.09

Peak level 92.1 %
Track quality 100.0 %
Test CRC 9E677316
Copy CRC 9E677316
Copy OK

Track 11
Filename C:\TEMP\11 - Parchman Farm.wav

Pre-gap length 0:00:06.77

Peak level 95.3 %
Track quality 100.0 %
Test CRC 40292AA4
Copy CRC 40292AA4
Copy OK

Track 12
Filename C:\TEMP\12 - Looking Back.wav

Pre-gap length 0:00:05.74

Peak level 84.0 %
Track quality 100.0 %
Test CRC 256228BA
Copy CRC 256228BA
Copy OK

Track 13
Filename C:\TEMP\13 - So Many Roads.wav

Pre-gap length 0:00:05.32

Peak level 87.0 %
Track quality 100.0 %
Test CRC A86A1D3D
Copy CRC A86A1D3D
Copy OK

Track 14
Filename C:\TEMP\14 - Sitting In The Rain.wav

Pre-gap length 0:00:05.73

Peak level 93.3 %
Track quality 100.0 %
Test CRC C9DA14E6
Copy CRC C9DA14E6
Copy OK

Track 15
Filename C:\TEMP\15 - A Hard Road.wav

Pre-gap length 0:00:06.04

Peak level 86.2 %
Track quality 100.0 %
Test CRC 7BD34C24
Copy CRC 7BD34C24
Copy OK

Track 16
Filename C:\TEMP\16 - Dust My Blues.wav

Pre-gap length 0:00:06.61

Peak level 85.7 %
Track quality 99.9 %
Test CRC 1B0EAFB5
Copy CRC 1B0EAFB5
Copy OK

Track 17
Filename C:\TEMP\17 - The Supernatural.wav

Pre-gap length 0:00:06.74

Peak level 82.0 %
Track quality 100.0 %
Test CRC 38296245
Copy CRC 38296245
Copy OK

Track 18
Filename C:\TEMP\18 - Another Kind Of Love.wav

Pre-gap length 0:00:06.21

Peak level 92.2 %
Track quality 100.0 %
Test CRC 18EBA431
Copy CRC 18EBA431
Copy OK

Track 19
Filename C:\TEMP\19 - Leaping Christine.wav

Pre-gap length 0:00:06.62

Peak level 92.9 %
Track quality 100.0 %
Test CRC AE05ACF7
Copy CRC AE05ACF7
Copy OK

Track 20
Filename C:\TEMP\20 - Burn Out Your Blind Eyes.wav

Pre-gap length 0:00:08.08

Peak level 76.8 %
Track quality 99.9 %
Test CRC 9C142CAC
Copy CRC 9C142CAC
Copy OK

No errors occured


End of status report


Audiochecker Log
AUDIOCHECKER v2.0 beta (build 457) - by Dester - opdester@freemail.hu
~~~~~~~~~~~~~~~~~~~~~~~~~~~~~~~~~~
-=== DO NOT EDIT THIS FILE! ===-

Path: ...\(Disc 1)

01 -=- 01 - Crawling Up A Hill.flac -=- CDDA (100%)
02 -=- 02 - My Baby Is Sweeter.flac -=- CDDA (100%)
03 -=- 03 - Crocodile Walk.flac -=- CDDA (99%)
04 -=- 04 - Blues City Shakedown.flac -=- CDDA (100%)
05 -=- 05 - I'm Your Witchdoctor.flac -=- CDDA (99%)
06 -=- 06 - Telephone Blues.flac -=- CDDA (100%)
07 -=- 07 - Bernard Jenkins.flac -=- CDDA (100%)
08 -=- 08 - All Your Love.flac -=- CDDA (100%)
09 -=- 09 - Double Crossing Time.flac -=- CDDA (100%)
10 -=- 10 - Key To Love.flac -=- CDDA (100%)
11 -=- 11 - Parchman Farm.flac -=- CDDA (100%)
12 -=- 12 - Looking Back.flac -=- CDDA (100%)
13 -=- 13 - So Many Roads.flac -=- CDDA (100%)
14 -=- 14 - Sitting In The Rain.flac -=- CDDA (100%)
15 -=- 15 - A Hard Road.flac -=- CDDA (100%)
16 -=- 16 - Dust My Blues.flac -=- CDDA (99%)
17 -=- 17 - The Supernatural.flac -=- CDDA (100%)
18 -=- 18 - Another Kind Of Love.flac -=- CDDA (100%)
19 -=- 19 - Leaping Christine.flac -=- CDDA (100%)
20 -=- 20 - Burn Out Your Blind Eyes.flac -=- CDDA (100%)

Summary 99,85% CDDA

82914340

Tracklist CD2:

01. All My Life - John Mayall, Robinson, Jimmy Lee
02. Ridin' on the L & N - John Mayall, Burley, Dan
03. Eagle Eye
04. It Hurts Me Too - John Mayall, London, Mel
05. Double Trouble - John Mayall, Rush, Otis
06. Sonny Boy Blow
07. Broken Wings
08. Oh, Pretty Woman - John Mayall, Williams, A.C.
09. The Death of J.B. Lenoir
10. Man of Stone - John Mayall, Kirkland, Eddie
11. Checking on My Baby - John Mayall, Williamson, Sonny B
12. Suspicions, Pt. 1
13. Jenny
14. Picture on the Wall
15. No Reply
16. She's Too Young
17. Sandy
18. Walking on Sunset
19. The Bear
20. Fly Tomorrow

EAC Log
EAC extraction logfile from 19. May 2006, 16:51 for CD
John Mayall / London Blues 1964 1969 Disc 2

Used drive : JLMS DVD-ROM LTD-166S Adapter: 0 ID: 2
Read mode : Secure with NO C2, accurate stream, disable cache
Read offset correction : 12
Overread into Lead-In and Lead-Out : No

Used output format : Internal WAV Routines
44.100 Hz; 16 Bit; Stereo

Other options :
Fill up missing offset samples with silence : Yes
Delete leading and trailing silent blocks : No
Native Win32 interface for Win NT & 2000


Track 1
Filename C:\TEMP\01 - All My Life.wav

Pre-gap length 0:00:02.44

Peak level 100.0 %
Track quality 99.9 %
Test CRC 770DBB63
Copy CRC 770DBB63
Copy OK

Track 2
Filename C:\TEMP\02 - Ridin' On The L&N.wav

Peak level 81.6 %
Track quality 100.0 %
Test CRC 0B0E5866
Copy CRC 0B0E5866
Copy OK

Track 3
Filename C:\TEMP\03 - Eagle Eye.wav

Peak level 71.2 %
Track quality 99.9 %
Test CRC C2B74BAF
Copy CRC C2B74BAF
Copy OK

Track 4
Filename C:\TEMP\04 - It Hurts Me Too.wav

Peak level 79.7 %
Track quality 100.0 %
Test CRC B57A96A0
Copy CRC B57A96A0
Copy OK

Track 5
Filename C:\TEMP\05 - Double Trouble.wav

Peak level 75.6 %
Track quality 100.0 %
Test CRC 38C68C0D
Copy CRC 38C68C0D
Copy OK

Track 6
Filename C:\TEMP\06 - Sonny Boy Blow.wav

Peak level 73.8 %
Track quality 100.0 %
Test CRC B237E27D
Copy CRC B237E27D
Copy OK

Track 7
Filename C:\TEMP\07 - Broken Wings.wav

Peak level 76.5 %
Track quality 100.0 %
Test CRC 15264FB0
Copy CRC 15264FB0
Copy OK

Track 8
Filename C:\TEMP\08 - Oh Pretty Woman.wav

Peak level 90.9 %
Track quality 100.0 %
Test CRC 903F1120
Copy CRC 903F1120
Copy OK

Track 9
Filename C:\TEMP\09 - The Death Of J B Lenoir.wav

Peak level 89.7 %
Track quality 100.0 %
Test CRC B694C96A
Copy CRC B694C96A
Copy OK

Track 10
Filename C:\TEMP\10 - Man Of Stone.wav

Pre-gap length 0:00:01.00

Peak level 88.8 %
Track quality 100.0 %
Test CRC 27D10138
Copy CRC 27D10138
Copy OK

Track 11
Filename C:\TEMP\11 - Checkin' On My Baby.wav

Peak level 93.1 %
Track quality 100.0 %
Test CRC 36D5D393
Copy CRC 36D5D393
Copy OK

Track 12
Filename C:\TEMP\12 - Suspicions Part One.wav

Peak level 89.6 %
Track quality 100.0 %
Test CRC 0CA98768
Copy CRC 0CA98768
Copy OK

Track 13
Filename C:\TEMP\13 - Jenny.wav

Pre-gap length 0:00:00.90

Peak level 74.1 %
Track quality 100.0 %
Test CRC 8A515C92
Copy CRC 8A515C92
Copy OK

Track 14
Filename C:\TEMP\14 - Picture On The Wall.wav

Pre-gap length 0:00:00.34

Peak level 81.1 %
Track quality 99.9 %
Test CRC C4CAB53D
Copy CRC C4CAB53D
Copy OK

Track 15
Filename C:\TEMP\15 - No Reply.wav

Peak level 96.6 %
Track quality 100.0 %
Test CRC B0B6D58C
Copy CRC B0B6D58C
Copy OK

Track 16
Filename C:\TEMP\16 - She's Too Young.wav

Peak level 90.3 %
Track quality 100.0 %
Test CRC C1D2B97F
Copy CRC C1D2B97F
Copy OK

Track 17
Filename C:\TEMP\17 - Sandy.wav

Pre-gap length 0:00:00.66

Peak level 89.2 %
Track quality 100.0 %
Test CRC C643A07D
Copy CRC C643A07D
Copy OK

Track 18
Filename C:\TEMP\18 - Walking On Sunset.wav

Peak level 95.2 %
Track quality 100.0 %
Test CRC 13DBF5DB
Copy CRC 13DBF5DB
Copy OK

Track 19
Filename C:\TEMP\19 - The Bear.wav

Peak level 88.2 %
Track quality 100.0 %
Test CRC E2A21EE6
Copy CRC E2A21EE6
Copy OK

Track 20
Filename C:\TEMP\20 - Fly Tomorrow.wav

Peak level 91.1 %
Track quality 97.3 %
Test CRC D8BEAAC2
Copy CRC D8BEAAC2
Copy OK

No errors occured


End of status report

Audiochecker Log
AUDIOCHECKER v2.0 beta (build 457) - by Dester - opdester@freemail.hu
~~~~~~~~~~~~~~~~~~~~~~~~~~~~~~~~~~
-=== DO NOT EDIT THIS FILE! ===-

Path: ...\(Disc 2)

01 -=- 01 - All My Life.flac -=- CDDA (99%)
02 -=- 02 - Ridin' On The L&N.flac -=- CDDA (99%)
03 -=- 03 - Eagle Eye.flac -=- CDDA (100%)
04 -=- 04 - It Hurts Me Too.flac -=- CDDA (100%)
05 -=- 05 - Double Trouble.flac -=- CDDA (100%)
06 -=- 06 - Sonny Boy Blow.flac -=- CDDA (100%)
07 -=- 07 - Broken Wings.flac -=- CDDA (100%)
08 -=- 08 - Oh Pretty Woman.flac -=- CDDA (100%)
09 -=- 09 - The Death Of J B Lenoir.flac -=- CDDA (100%)
10 -=- 10 - Man Of Stone.flac -=- CDDA (100%)
11 -=- 11 - Checkin' On My Baby.flac -=- CDDA (100%)
12 -=- 12 - Suspicions Part One.flac -=- CDDA (100%)
13 -=- 13 - Jenny.flac -=- CDDA (100%)
14 -=- 14 - Picture On The Wall.flac -=- CDDA (100%)
15 -=- 15 - No Reply.flac -=- CDDA (100%)
16 -=- 16 - She's Too Young.flac -=- CDDA (100%)
17 -=- 17 - Sandy.flac -=- CDDA (100%)
18 -=- 18 - Walking On Sunset.flac -=- CDDA (100%)
19 -=- 19 - The Bear.flac -=- CDDA (100%)
20 -=- 20 - Fly Tomorrow.flac -=- CDDA (99%)

Summary 99,85% CDDA

208920020



John Mayall in my blog:
John Mayall - Empty Rooms - 1969
John Mayall - Moving On - 1972 (2009)
John Mayall - Thru The Years - 1972
John Mayall - Ten Years Are Gone - 1973 (2009)
John Mayall - The Latest Edition - 1974 (2009)
John Mayall - Notice To Appear - 1975
John Mayall - Wake Up Call - 1993
The Best of John Mayall and the Bluesbreakers - As It All Began 1964-1969 (1998)
John Mayall - Room To Move 1969-1974 (1993)
John Mayall And The Bluesbreakers - Live At The BBC - 2007
John Mayall & The Bluesbreakers - The Turning Point Soundtrack - 2004 [Live]
John Mayall - Tough - 2009
John Mayall - A Banquet In Blues - 1976
John Mayall - A Hard Core Package - 1977

Video:
John Mayall - The Godfather of British Blues / The Turning Point - 2004
John Mayall - Rollin' with the blues - 2005 [DVD-5]
John Mayall - Live From Austin - 1993 (2007) [DVD-5]

ADVERTISING » Click here to download Ebooks/Magazines for free « ADVERTISING


Posted By: wersollsschonsein Date: 29 Apr 2010 16:54:22
Cheers from Ireland.
Posted By: DarkMagus Date: 29 Apr 2010 18:31:29
Cheers from Germany.
Posted By: stuckinthe70s Date: 29 Apr 2010 21:37:18
thank you - steve.
Posted By: peachfuzz Date: 30 Apr 2010 00:40:52
Cheers from Mars. Yeah, we love JM here too.
Thanks for sharing!
Posted By: AgnusDei Date: 30 Apr 2010 05:40:09
Thanks Sir .
Posted By: suki2000 Date: 30 Apr 2010 15:04:03
Thanks a lot!
Posted By: maprota Date: 24 May 2010 20:14:21
thank you from greece
Posted By: diddlycrap Date: 29 Sep 2012 05:40:57
Thanks a lot for the post...