Loading...

Tori Amos - Winter [EP] (1991)

Posted By : olafweisse | Date : 02 Jun 2009 12:41:10 | Comments : 0 |
|



Tori Amos - Winter [EP] (1991)
EAC AccurateRip | APE, IMG+CUE, LOG | 107,9 MB | MP3 CBR 320 Kbps | 43,4 MB | Complete Scans (300 dpi) | 18,1 MB
Alternative Pop-Rock | Label: Atlantic | Catalog Number: 85799-2 | Time: 20:43 | RAR | RS.com


Tracklisting:

1 Winter (5:42)
2 The Pool (2:51)
3 Take To The Sky (4:20)
4 Sweet Dreams (3:28)
5 Upside Down (4:21)


EAC

Exact Audio Copy V0.99 prebeta 4 from 23. January 2008

EAC extraction logfile from 22. April 2009, 10:48

Tori Amos / Winter

Used drive : PIONEER DVD-RW DVR-105 Adapter: 0 ID: 1

Read mode : Secure
Utilize accurate stream : Yes
Defeat audio cache : Yes
Make use of C2 pointers : No

Read offset correction : 48
Overread into Lead-In and Lead-Out : Yes
Fill up missing offset samples with silence : Yes
Delete leading and trailing silent blocks : No
Null samples used in CRC calculations : Yes
Used interface : Installed external ASPI interface

Used output format : Monkey's Audio Lossless Encoder
Selected bitrate : High Lossless Compression
Quality : High
Add ID3 tag : Yes
Command line compressor : C:\Program Files\Monkey's Audio\Monkey's Audio.exe


TOC of the extracted CD

Track | Start | Length | Start sector | End sector
---------------------------------------------------------
1 | 0:00.32 | 5:42.70 | 32 | 25751
2 | 5:43.27 | 2:51.23 | 25752 | 38599
3 | 8:34.50 | 4:20.17 | 38600 | 58116
4 | 12:54.67 | 3:28.58 | 58117 | 73774
5 | 16:23.50 | 4:21.42 | 73775 | 93391


Range status and errors

Selected range

Filename \\.PSF\Home\Desktop\ RIP\Tori Amos - Winter\Tori Amos - Winter.wav

Peak level 99.1 %
Range quality 99.9 %
Test CRC A7399931
Copy CRC A7399931
Copy OK

No errors occurred


AccurateRip summary

Track 1 accurately ripped (confidence 33) [8AC823AF]
Track 2 accurately ripped (confidence 34) [B54EAE4D]
Track 3 accurately ripped (confidence 34) [04184810]
Track 4 accurately ripped (confidence 34) [3E082450]
Track 5 accurately ripped (confidence 33) [88E8D48F]

All tracks accurately ripped

End of status report


Download-Links
Pass: www.AvaxHome.ru

ADVERTISING » Very Fast Download! « ADVERTISING


No comments for the news