Loading...

VA - The Kings of... Series (6 x 2CD) (2005-2007)

Posted By : mook45 | Date : 25 Dec 2009 05:11:18 | Comments : 6 |
|



VA - The Kings of... Series (6 x 2CD) (2005-2007)
EAC | FLAC IMG,CUE+LOG = 942/1030/900/827/527/982MB | MP3@320 = 334/365/355/313/192/345MB | 400 dpi Scans
Electro/House/Techo/Hip Hop/Funk | Label: Rapster | FSo/FSe


Six comps from Rapster's series (there's also Reggae, Jazz and Disco which I don't have on CD.)



Alter Ego and Playgroup - The Kings Of Electro (2007)

Track listing
Disc 1 (Playgroup)

1. Just Ice - Turbocharged
2. Vanity 6 - Make Up
3. Jenny Burton - Rock Steady (Album Mix)
4. Deee-Lite - What Is Love? (Rainbow Beard Mix)
5. Mr & Mrs Dale - It's You
6. Sylvester - Rock The Box
7. Model 500 - No UFO's (Vocal Mix)
8. Dynamix 2 - Give The DJ A Break (12" Club Version)
9. Fearless Four - Just Rock
10. Ryuichi Sakamoto - Riot In Lagos
11. Energie - Report To The Dancefloor
12. Visage - Pleasure Boys
13. Hashim - Al Naayfish
14. Original Concept - Knowledge Me
15. Chris & Cosey - This Is Me
16. Arcade Funk - Tilt
17. Unknown DJ - Basstronic
18. Whodini - Magic's Wand

Disc 2 (Alter Ego)

1. Robert Hood - ­ Minus
2. Psyche -­ Neurotic Behaviour
3. Daniel Bell - ­ Baby Judy
4. Maurizio -­ M4
5. Modeler - Mint Condition
6. Low Res - Amuck
7. Dopplereffekt -­ Cellularphone
8. Mu - Chair Girl
9. Azzido Da Bass -­ Dooms Night (Timo Mass Mix
10. Elastic Reality - Cassa De X (Deep Dish Mix)
11. Detroit Grand Pubahs - Big Onion (Joakim Remix)
12. Kenny Larkin - Colonize
13. I:Cube - Chicago Sur Seine
14. Chicken Lips -­ He Not In
15. Plastikman - Kriket
16. Underground Resistance - ­ Jupiter Jazz

CD1 LOG
Exact Audio Copy V0.99 prebeta 5 from 4. May 2009

EAC extraction logfile from 21. November 2009, 21:09

Playgroup / The Kings of Electro (CD1)

Used drive : HP DVD Writer 1040r Adapter: 1 ID: 0

Read mode : Secure
Utilize accurate stream : Yes
Defeat audio cache : Yes
Make use of C2 pointers : No

Read offset correction : 6
Overread into Lead-In and Lead-Out : No
Fill up missing offset samples with silence : Yes
Delete leading and trailing silent blocks : No
Null samples used in CRC calculations : Yes
Used interface : Native Win32 interface for Win NT & 2000

Used output format : User Defined Encoder
Selected bitrate : 1024 kBit/s
Quality : High
Add ID3 tag : No
Command line compressor : C:\Program Files\Exact Audio Copy\FLAC\FLAC.EXE
Additional command line options : -5 -V -T "ARTIST=%a" -T "TITLE=%t" -T "ALBUM=%g" -T "DATE=%y" -T "TRACKNUMBER=%n" -T "GENRE=%m" -T "COMMENT=EAC Flac 1.1.2 -5" %s


TOC of the extracted CD

Track | Start | Length | Start sector | End sector
---------------------------------------------------------
1 | 0:00.00 | 2:54.68 | 0 | 13117
2 | 2:54.68 | 3:40.73 | 13118 | 29690
3 | 6:35.66 | 3:07.49 | 29691 | 43764
4 | 9:43.40 | 5:34.21 | 43765 | 68835
5 | 15:17.61 | 5:54.49 | 68836 | 95434
6 | 21:12.35 | 2:37.65 | 95435 | 107274
7 | 23:50.25 | 5:01.53 | 107275 | 129902
8 | 28:52.03 | 2:51.17 | 129903 | 142744
9 | 31:43.20 | 2:21.21 | 142745 | 153340
10 | 34:04.41 | 2:05.30 | 153341 | 162745
11 | 36:09.71 | 3:52.50 | 162746 | 180195
12 | 40:02.46 | 6:17.16 | 180196 | 208486
13 | 46:19.62 | 4:17.06 | 208487 | 227767
14 | 50:36.68 | 5:39.15 | 227768 | 253207
15 | 56:16.08 | 2:35.45 | 253208 | 264877
16 | 58:51.53 | 4:05.44 | 264878 | 283296
17 | 62:57.22 | 3:53.09 | 283297 | 300780
18 | 66:50.31 | 4:08.22 | 300781 | 319402
19 | 70:58.53 | 2:43.29 | 319403 | 331656


Range status and errors

Selected range

Filename C:\Users\Mike3\Desktop\The Kings of Electro (Flac)\Disc 1 (Playgroup)\Playgroup - The Kings of Electro (CD1).wav

Peak level 100.0 %
Range quality 99.9 %
Copy CRC AFCD1543
Copy OK

No errors occurred


AccurateRip summary

Track 1 not present in database
Track 2 not present in database
Track 3 not present in database
Track 4 not present in database
Track 5 not present in database
Track 6 not present in database
Track 7 not present in database
Track 8 not present in database
Track 9 not present in database
Track 10 not present in database
Track 11 not present in database
Track 12 not present in database
Track 13 not present in database
Track 14 not present in database
Track 15 not present in database
Track 16 not present in database
Track 17 not present in database
Track 18 not present in database
Track 19 not present in database

None of the tracks are present in the AccurateRip database

End of status report


CD2 LOG
Exact Audio Copy V0.99 prebeta 5 from 4. May 2009

EAC extraction logfile from 21. November 2009, 23:56

Alter Ego / The Kings of Electro CD2

Used drive : HP DVD Writer 1040r Adapter: 1 ID: 0

Read mode : Burst

Read offset correction : 6
Overread into Lead-In and Lead-Out : No
Fill up missing offset samples with silence : Yes
Delete leading and trailing silent blocks : No
Null samples used in CRC calculations : Yes
Used interface : Native Win32 interface for Win NT & 2000

Used output format : User Defined Encoder
Selected bitrate : 1024 kBit/s
Quality : High
Add ID3 tag : No
Command line compressor : C:\Program Files\Exact Audio Copy\FLAC\FLAC.EXE
Additional command line options : -5 -V -T "ARTIST=%a" -T "TITLE=%t" -T "ALBUM=%g" -T "DATE=%y" -T "TRACKNUMBER=%n" -T "GENRE=%m" -T "COMMENT=EAC Flac 1.1.2 -5" %s


TOC of the extracted CD

Track | Start | Length | Start sector | End sector
---------------------------------------------------------
1 | 0:00.00 | 3:07.42 | 0 | 14066
2 | 3:07.42 | 5:49.51 | 14067 | 40292
3 | 8:57.18 | 3:26.19 | 40293 | 55761
4 | 12:23.37 | 3:59.05 | 55762 | 73691
5 | 16:22.42 | 5:23.32 | 73692 | 97948
6 | 21:45.74 | 3:00.01 | 97949 | 111449
7 | 24:46.00 | 3:48.56 | 111450 | 128605
8 | 28:34.56 | 3:11.27 | 128606 | 142957
9 | 31:46.08 | 4:56.29 | 142958 | 165186
10 | 36:42.37 | 7:25.74 | 165187 | 198635
11 | 44:08.36 | 3:18.22 | 198636 | 213507
12 | 47:26.58 | 2:34.16 | 213508 | 225073
13 | 50:00.74 | 5:13.45 | 225074 | 248593
14 | 55:14.44 | 2:44.39 | 248594 | 260932
15 | 57:59.08 | 3:46.67 | 260933 | 277949
16 | 61:46.00 | 4:24.34 | 277950 | 297783


Range status and errors

Selected range

Filename C:\Users\Mike3\Desktop\The Kings of Electro (Flac)\Disc 2 (Alter Ego)\Alter Ego - The Kings of Electro CD2.wav

Timing problem 0:00:17

Peak level 100.0 %
Copy CRC 75A88BAD
Copy finished

No errors occurred


AccurateRip summary

Track 1 accurately ripped (confidence 2) [3BEB6DED]
Track 2 accurately ripped (confidence 2) [F8B6E7B6]
Track 3 accurately ripped (confidence 2) [F91F5B44]
Track 4 accurately ripped (confidence 2) [F8FA84EF]
Track 5 accurately ripped (confidence 2) [CE7D762D]
Track 6 accurately ripped (confidence 2) [D4D184EC]
Track 7 accurately ripped (confidence 2) [02E73928]
Track 8 accurately ripped (confidence 2) [B16FF6F1]
Track 9 accurately ripped (confidence 2) [A26345A4]
Track 10 accurately ripped (confidence 2) [891F0302]
Track 11 accurately ripped (confidence 2) [0A81FE9C]
Track 12 accurately ripped (confidence 2) [C7168E64]
Track 13 accurately ripped (confidence 2) [3A07855C]
Track 14 accurately ripped (confidence 2) [177A1236]
Track 15 accurately ripped (confidence 2) [4D45EA46]
Track 16 accurately ripped (confidence 2) [A1E32D78]

All tracks accurately ripped

End of status report

Files
Lame 320 Kbps = 334MB
Flac 942 ABR Kbps = 942MB



Masters at Work - The Kings Of House (2005)

Track listing
Disc 1 (Kenny Dope)

1. Taste My Love-Taste My Love
2. The Sound-Reese & Santonio [Smoothe Mix]
3. Rock To The Beat-Reese & Santonio
4. Sexuality-Blake Baxter
5. The Jungle-Jungle Wonz [Jungle Mix]
6. Can You Feel It?-Mr Fingers [Instrumental Version]
7. 7 Ways To Jack-Hercules
8. It's All Right-Sterling Void
9. Poke!-The Endless Pokers
10. Donnie-The It
11. It's U-ESP-Underground
12. Strings Of Life-Rhythm Is Rhythm
13. It Is What It Is-Rhythm Is Rhythm
14. I Wanna See You Freak (Like Dis)-Cassio Ware, Chip E & The Ogs
15. God Make Me Funky-Mike Dunn
16. Let's Get Jazzy-KC Flight
17. I Gotta Hold On You-Maurice Joshua [Dub]
18. Drink On Me-Teule
19. Video Crash-Tyree

Disc 2 (Louie Vega)

1. Promised Land-Joe Smooth [Club Mix]
2. Bring Down The Walls-Robert Owens
3. Your Love-Frankie Knuckles Feat. Jamie Principle
4. Baby Wants To Ride-Frankie Knuckles Feat. Jamie Principle
5. Face It-Master C&J Feat. Liz Torres [Dub]
6. Never No More Lonely-Mr Fingers Inc.
7. We Can Make It-Terry Hunter
8. Brighter Days-Cajmere Feat. Dajae [Louie's Masters At Work Mix]
9. Let Me Show You Love-Romanthony [Quick Dub]
10. Whatcha Gonna Do-Blaze
11. If You Should Need A Friend-Blaze
12. I'll Be Your Friend-Robert Owens [Perfecto Mix]
13. I Can't Forget-Mr Lee
14. Rushing-Loni Clark
15. Swan Lake-Todd Terry
16. Rain-Kerri Chandler
17. Get It Off-Kerri Chandler
18. V Gets Jazzy-Louie Vega Feat. Mr V
19. In A Vision-Virgo 4

CD1 LOG
Exact Audio Copy V0.99 prebeta 5 from 4. May 2009

EAC extraction logfile from 22. November 2009, 0:26

Masters At Work (Kenny Dope) / The Kings of House [CD1]

Used drive : HP DVD Writer 1040r Adapter: 1 ID: 0

Read mode : Secure
Utilize accurate stream : Yes
Defeat audio cache : Yes
Make use of C2 pointers : No

Read offset correction : 6
Overread into Lead-In and Lead-Out : No
Fill up missing offset samples with silence : Yes
Delete leading and trailing silent blocks : No
Null samples used in CRC calculations : Yes
Used interface : Native Win32 interface for Win NT & 2000

Used output format : User Defined Encoder
Selected bitrate : 1024 kBit/s
Quality : High
Add ID3 tag : No
Command line compressor : C:\Program Files\Exact Audio Copy\FLAC\FLAC.EXE
Additional command line options : -5 -V -T "ARTIST=%a" -T "TITLE=%t" -T "ALBUM=%g" -T "DATE=%y" -T "TRACKNUMBER=%n" -T "GENRE=%m" -T "COMMENT=EAC Flac 1.1.2 -5" %s


TOC of the extracted CD

Track | Start | Length | Start sector | End sector
---------------------------------------------------------
1 | 0:00.00 | 4:18.21 | 0 | 19370
2 | 4:18.21 | 1:37.20 | 19371 | 26665
3 | 5:55.41 | 1:25.14 | 26666 | 33054
4 | 7:20.55 | 3:09.52 | 33055 | 47281
5 | 10:30.32 | 2:25.20 | 47282 | 58176
6 | 12:55.52 | 6:03.68 | 58177 | 85469
7 | 18:59.45 | 2:47.66 | 85470 | 98060
8 | 21:47.36 | 5:07.52 | 98061 | 121137
9 | 26:55.13 | 3:34.70 | 121138 | 137257
10 | 30:30.08 | 1:42.60 | 137258 | 144967
11 | 32:12.68 | 4:22.38 | 144968 | 164655
12 | 36:35.31 | 3:39.08 | 164656 | 181088
13 | 40:14.39 | 0:58.67 | 181089 | 185505
14 | 41:13.31 | 3:03.18 | 185506 | 199248
15 | 44:16.49 | 5:02.63 | 199249 | 221961
16 | 49:19.37 | 2:03.33 | 221962 | 231219
17 | 51:22.70 | 3:48.31 | 231220 | 248350
18 | 55:11.26 | 5:56.24 | 248351 | 275074
19 | 61:07.50 | 5:38.24 | 275075 | 300448
20 | 66:45.74 | 7:37.44 | 300449 | 334767


Range status and errors

Selected range

Filename C:\Users\Mike3\Desktop\Kings of House Compiled and Mixed by Masters at Work (Flac)\Disc 1 (Kenny Dope)\Masters At Work (Kenny Dope) - The Kings of House [CD1].wav

Peak level 99.9 %
Range quality 99.9 %
Copy CRC B5FF99E5
Copy OK

No errors occurred


AccurateRip summary

Track 1 accurately ripped (confidence 3) [0857A49A]
Track 2 accurately ripped (confidence 3) [BB0BFB27]
Track 3 accurately ripped (confidence 3) [38136917]
Track 4 accurately ripped (confidence 3) [25ECD77B]
Track 5 accurately ripped (confidence 3) [C72EC03D]
Track 6 accurately ripped (confidence 3) [02CE82D9]
Track 7 accurately ripped (confidence 3) [8D52E9D7]
Track 8 accurately ripped (confidence 3) [A75EE69B]
Track 9 accurately ripped (confidence 3) [0F996838]
Track 10 accurately ripped (confidence 3) [8133EFF2]
Track 11 accurately ripped (confidence 3) [C2607D89]
Track 12 accurately ripped (confidence 3) [7156982C]
Track 13 accurately ripped (confidence 3) [2F9AF26A]
Track 14 accurately ripped (confidence 3) [C79AB8EF]
Track 15 accurately ripped (confidence 3) [3D23C94C]
Track 16 accurately ripped (confidence 3) [7AFEB7FB]
Track 17 accurately ripped (confidence 3) [69F09252]
Track 18 accurately ripped (confidence 3) [F177613E]
Track 19 accurately ripped (confidence 3) [6561A427]
Track 20 accurately ripped (confidence 3) [823A2F89]

All tracks accurately ripped

End of status report


CD2 LOG
Exact Audio Copy V0.99 prebeta 5 from 4. May 2009

EAC extraction logfile from 22. November 2009, 0:54

Masters At Work (Louie Vega) / The Kings of House [CD2]

Used drive : HP DVD Writer 1040r Adapter: 1 ID: 0

Read mode : Secure
Utilize accurate stream : Yes
Defeat audio cache : Yes
Make use of C2 pointers : No

Read offset correction : 6
Overread into Lead-In and Lead-Out : No
Fill up missing offset samples with silence : Yes
Delete leading and trailing silent blocks : No
Null samples used in CRC calculations : Yes
Used interface : Native Win32 interface for Win NT & 2000

Used output format : User Defined Encoder
Selected bitrate : 1024 kBit/s
Quality : High
Add ID3 tag : No
Command line compressor : C:\Program Files\Exact Audio Copy\FLAC\FLAC.EXE
Additional command line options : -5 -V -T "ARTIST=%a" -T "TITLE=%t" -T "ALBUM=%g" -T "DATE=%y" -T "TRACKNUMBER=%n" -T "GENRE=%m" -T "COMMENT=EAC Flac 1.1.2 -5" %s


TOC of the extracted CD

Track | Start | Length | Start sector | End sector
---------------------------------------------------------
1 | 0:00.00 | 4:01.21 | 0 | 18095
2 | 4:01.21 | 5:37.13 | 18096 | 43383
3 | 9:38.34 | 2:04.44 | 43384 | 52727
4 | 11:43.03 | 2:12.65 | 52728 | 62692
5 | 13:55.68 | 5:08.51 | 62693 | 85843
6 | 19:04.44 | 4:14.14 | 85844 | 104907
7 | 23:18.58 | 2:17.14 | 104908 | 115196
8 | 25:35.72 | 2:38.51 | 115197 | 127097
9 | 28:14.48 | 1:59.38 | 127098 | 136060
10 | 30:14.11 | 4:13.67 | 136061 | 155102
11 | 34:28.03 | 6:27.45 | 155103 | 184172
12 | 40:55.48 | 4:07.50 | 184173 | 202747
13 | 45:03.23 | 1:52.21 | 202748 | 211168
14 | 46:55.44 | 4:24.07 | 211169 | 230975
15 | 51:19.51 | 2:53.42 | 230976 | 243992
16 | 54:13.18 | 2:20.71 | 243993 | 254563
17 | 56:34.14 | 1:49.44 | 254564 | 262782
18 | 58:23.58 | 3:35.15 | 262783 | 278922
19 | 61:58.73 | 4:57.57 | 278923 | 301254
20 | 66:56.55 | 0:38.16 | 301255 | 304120
21 | 67:34.71 | 5:36.37 | 304121 | 329357
22 | 73:11.33 | 5:30.56 | 329358 | 354163


Range status and errors

Selected range

Filename C:\Users\Mike3\Desktop\Kings of House Compiled and Mixed by Masters at Work (Flac)\Disc 2 (Louie Vega)\Masters At Work (Louie Vega) - The Kings of House [CD2].wav

Peak level 99.9 %
Range quality 100.0 %
Copy CRC ADEFAFC3
Copy OK

No errors occurred


AccurateRip summary

Track 1 accurately ripped (confidence 3) [6F5C2856]
Track 2 accurately ripped (confidence 3) [0A4DB35A]
Track 3 accurately ripped (confidence 3) [D0FB5E42]
Track 4 accurately ripped (confidence 3) [0782B115]
Track 5 accurately ripped (confidence 3) [3801B3D5]
Track 6 accurately ripped (confidence 3) [1B21001D]
Track 7 accurately ripped (confidence 3) [309DFF76]
Track 8 accurately ripped (confidence 3) [D833F2AB]
Track 9 accurately ripped (confidence 3) [D16027D0]
Track 10 accurately ripped (confidence 3) [DE7E7F6A]
Track 11 accurately ripped (confidence 3) [89E27432]
Track 12 accurately ripped (confidence 3) [510AFCF9]
Track 13 accurately ripped (confidence 3) [5830C84D]
Track 14 accurately ripped (confidence 3) [65267A8D]
Track 15 accurately ripped (confidence 3) [0D0BB1A3]
Track 16 accurately ripped (confidence 3) [61E2318A]
Track 17 accurately ripped (confidence 3) [1A0D1369]
Track 18 accurately ripped (confidence 3) [01DF2707]
Track 19 accurately ripped (confidence 3) [6A926017]
Track 20 accurately ripped (confidence 3) [395F1F31]
Track 21 accurately ripped (confidence 3) [E3F9DBB5]
Track 22 accurately ripped (confidence 3) [B24A788F]

All tracks accurately ripped

End of status report

Files
Lame 320 Kbps = 365MB
Flac 952 ABR Kbps = 1.03GB



Laurent Garnier and Carl Craig - The Kings of Techno (2006)

Track listing
Disc 1 (Laurent Garnier)

The Plum Blossom - Yusef Lateef
Game Over - Dabrye feat. Jay Dee and Phat Kat
Beej -N-Dem Pt 2 - Jay Dee
Listen
Rock Steady - Aretha Franklin
NTT DoCoMo - Arpanet
Galaxy - BFC
Just A Feeling - Instinct
No More Words - Carl Craig
Burning - MK
Me And The Gang - Hamilton Bohannon
Get up - D.I.E. (Detroit In Effect)
Don’t Talk (Redux) - ADULT
No Fun - The Stooges
Utopia - Jeff Mills
Bettino’s Bounce - Funkadelic
Journey In Satchidananda - Alice Coltrane feat. Pharoah Sanders
Amazon (Live) - Underground Resistance

Disc 2 (Carl Craig)

Intro -
I Need Love (Instrumental) - Capricorn
Join In The Chant - Nitzer Ebb
Disco Circus - Martin Circus
It's A War - Kano
Computer Games - Yellow Magic Orchestra
No More Words - Yello
Peut être pas - Liaisons Dangereuses
Dance Boy Dance - Alexander Robotnick
Acid Eiffel - Choice
Virtual - The Black Dog
Flesh & Steel - The Flying Lizards
Norte Route - Balil
Frequency 7 - Visage
The Ant Can See Legs - Severed Heads

CD1 LOG
Exact Audio Copy V0.99 prebeta 5 from 4. May 2009

EAC extraction logfile from 22. November 2009, 1:23

Laurent Garnier / The Kings Of Techno [Disc 1]

Used drive : HP DVD Writer 1040r Adapter: 1 ID: 0

Read mode : Secure
Utilize accurate stream : Yes
Defeat audio cache : Yes
Make use of C2 pointers : No

Read offset correction : 6
Overread into Lead-In and Lead-Out : No
Fill up missing offset samples with silence : Yes
Delete leading and trailing silent blocks : No
Null samples used in CRC calculations : Yes
Used interface : Native Win32 interface for Win NT & 2000

Used output format : User Defined Encoder
Selected bitrate : 1024 kBit/s
Quality : High
Add ID3 tag : No
Command line compressor : C:\Program Files\Exact Audio Copy\FLAC\FLAC.EXE
Additional command line options : -5 -V -T "ARTIST=%a" -T "TITLE=%t" -T "ALBUM=%g" -T "DATE=%y" -T "TRACKNUMBER=%n" -T "GENRE=%m" -T "COMMENT=EAC Flac 1.1.2 -5" %s


TOC of the extracted CD

Track | Start | Length | Start sector | End sector
---------------------------------------------------------
1 | 0:00.00 | 78:22.48 | 0 | 352697


Range status and errors

Selected range

Filename C:\Users\Mike3\Desktop\The Kings of Techo (Flac)\Disc 1 ( Laurent Garnier)\Laurent Garnier - The Kings Of Techno [Disc 1].wav

Peak level 99.8 %
Range quality 100.0 %
Copy CRC 67363A78
Copy OK

No errors occurred


AccurateRip summary

Track 1 accurately ripped (confidence 2) [AD953044]

All tracks accurately ripped

End of status report


CD2 LOG
Exact Audio Copy V0.99 prebeta 5 from 4. May 2009

EAC extraction logfile from 22. November 2009, 1:48

Carl Craig / The Kings of Techno CD2 The European Perspective

Used drive : HP DVD Writer 1040r Adapter: 1 ID: 0

Read mode : Secure
Utilize accurate stream : Yes
Defeat audio cache : Yes
Make use of C2 pointers : No

Read offset correction : 6
Overread into Lead-In and Lead-Out : No
Fill up missing offset samples with silence : Yes
Delete leading and trailing silent blocks : No
Null samples used in CRC calculations : Yes
Used interface : Native Win32 interface for Win NT & 2000

Used output format : User Defined Encoder
Selected bitrate : 1024 kBit/s
Quality : High
Add ID3 tag : No
Command line compressor : C:\Program Files\Exact Audio Copy\FLAC\FLAC.EXE
Additional command line options : -5 -V -T "ARTIST=%a" -T "TITLE=%t" -T "ALBUM=%g" -T "DATE=%y" -T "TRACKNUMBER=%n" -T "GENRE=%m" -T "COMMENT=EAC Flac 1.1.2 -5" %s


TOC of the extracted CD

Track | Start | Length | Start sector | End sector
---------------------------------------------------------
1 | 0:00.00 | 2:01.50 | 0 | 9124
2 | 2:01.50 | 4:38.54 | 9125 | 30028
3 | 6:40.29 | 3:49.33 | 30029 | 47236
4 | 10:29.62 | 3:26.10 | 47237 | 62696
5 | 13:55.72 | 5:03.30 | 62697 | 85451
6 | 18:59.27 | 6:19.09 | 85452 | 113885
7 | 25:18.36 | 4:08.71 | 113886 | 132556
8 | 29:27.32 | 2:24.45 | 132557 | 143401
9 | 31:52.02 | 3:48.16 | 143402 | 160517
10 | 35:40.18 | 2:55.40 | 160518 | 173682
11 | 38:35.58 | 4:38.12 | 173683 | 194544
12 | 43:13.70 | 3:42.41 | 194545 | 211235
13 | 46:56.36 | 8:05.14 | 211236 | 247624
14 | 55:01.50 | 5:31.68 | 247625 | 272517
15 | 60:33.43 | 5:00.26 | 272518 | 295043
16 | 65:33.69 | 5:42.51 | 295044 | 320744


Range status and errors

Selected range

Filename C:\Users\Mike3\Desktop\The Kings of Techo (Flac)\Disc 2 (Carl Craig)\Carl Craig - The Kings of Techno CD2 The European Perspective.wav

Peak level 99.9 %
Range quality 100.0 %
Copy CRC A470384E
Copy OK

No errors occurred


AccurateRip summary

Track 1 accurately ripped (confidence 2) [EC5A51A6]
Track 2 accurately ripped (confidence 2) [3EB508AC]
Track 3 accurately ripped (confidence 2) [84F6A4E9]
Track 4 accurately ripped (confidence 2) [2A4F010B]
Track 5 accurately ripped (confidence 2) [B303A030]
Track 6 accurately ripped (confidence 2) [EA308F13]
Track 7 accurately ripped (confidence 2) [DC20F721]
Track 8 accurately ripped (confidence 2) [366F19CB]
Track 9 accurately ripped (confidence 2) [0EF7C463]
Track 10 accurately ripped (confidence 2) [0EC55431]
Track 11 accurately ripped (confidence 2) [13713589]
Track 12 accurately ripped (confidence 2) [9FBBC946]
Track 13 accurately ripped (confidence 2) [C9F6AAE1]
Track 14 accurately ripped (confidence 2) [476B8C7F]
Track 15 accurately ripped (confidence 2) [C3656067]
Track 16 accurately ripped (confidence 2) [7BA75EC0]

All tracks accurately ripped

End of status report

Files
Lame 320 Kbps = 355MB
Flac 942 ABR Kbps = 0.9GB



DJ Premier and Mr Thing - The Kings of Hip Hop (2005)

Track listing
Disc 1 (DJ Premier)

1. Mister Magic-Grover Washington Jr [Single Version]
2. Q-The Brothers Johnson [Album Version]
3. The Message From The Soul Sisters Part 1&2-Vickie Anderson
4. Don't Explain-Nina Simone [Album Version]
5. Been A Long Time-Jerry Butler
6. Sweet Thing-Rufus Feat. Chaka Khan [Album Version]
7. I Put A Spell On You-Screamin' Jay Hawkins
8. Try A Little Tenderness-Otis Redding
9. We The People Who Are Darker Than Blue-Curtis Mayfield
10. Men Are Getting Scarce-Chairman Of The Board
11. Bring It On Home To Me-Percy Sledge
12. In The Midnight Hour-Wilson Pickett
13. Walkin' In The Sun-Percy Sledge

Disc 2 (Mr Thing)

1. Microphone Fiend-Eric B & Rakim [Album Version]
2. Rampage-EPMD
3. Skinz-Pete Rock & C.L. Smooth Feat. Grand Puba
4. Lots Of Lovin'-Pete Rock & C.L. Smooth [Remix Version]
5. Set It Off-Big Daddy Kane
6. Sound Bwoy Burreill-Smif N' Wessun
7. I Got Cha Opin-Black Moon
8. Punks Jump Up To Get Beat Down-Brand Nubian
9. Brooklyn Zoo-Ol' Dirty Bastard
10. Shimmy, Shimmy Ya-Ol' Dirty Bastard
11. Mic Checka-Das EFX [Remix]
12. Get On Down-Kenny Dope Presents The Unreleased Project
13. A Chorus Line 2000-Ultramagnetic MCs [Remix]
14. Worldwide-Royal Flush
15. The Bizness-De La Soul Feat. Common Sense

CD1 LOG
Exact Audio Copy V0.99 prebeta 5 from 4. May 2009

EAC extraction logfile from 12. December 2009, 23:49

Various / The Kings of Hip Hop (CD 1 Breaks - DJ Premier)

Used drive : HP DVD Writer 1040r Adapter: 1 ID: 0

Read mode : Secure
Utilize accurate stream : Yes
Defeat audio cache : Yes
Make use of C2 pointers : No

Read offset correction : 6
Overread into Lead-In and Lead-Out : No
Fill up missing offset samples with silence : Yes
Delete leading and trailing silent blocks : No
Null samples used in CRC calculations : Yes
Used interface : Native Win32 interface for Win NT & 2000

Used output format : User Defined Encoder
Selected bitrate : 1024 kBit/s
Quality : High
Add ID3 tag : No
Command line compressor : C:\Program Files\Exact Audio Copy\FLAC\FLAC.EXE
Additional command line options : -5 -V -T "ARTIST=%a" -T "TITLE=%t" -T "ALBUM=%g" -T "DATE=%y" -T "TRACKNUMBER=%n" -T "GENRE=%m" -T "COMMENT=EAC Flac 1.1.2 -5" %s


TOC of the extracted CD

Track | Start | Length | Start sector | End sector
---------------------------------------------------------
1 | 0:00.00 | 6:34.17 | 0 | 29566
2 | 6:34.17 | 5:49.18 | 29567 | 55759
3 | 12:23.35 | 6:09.37 | 55760 | 83471
4 | 18:32.72 | 4:28.28 | 83472 | 103599
5 | 23:01.25 | 5:11.40 | 103600 | 126964
6 | 28:12.65 | 3:49.30 | 126965 | 144169
7 | 32:02.20 | 3:06.01 | 144170 | 158120
8 | 35:08.21 | 3:10.65 | 158121 | 172435
9 | 38:19.11 | 4:33.24 | 172436 | 192934
10 | 42:52.35 | 3:03.51 | 192935 | 206710
11 | 45:56.11 | 4:24.18 | 206711 | 226528
12 | 50:20.29 | 2:51.16 | 226529 | 239369
13 | 53:11.45 | 3:29.17 | 239370 | 255061
14 | 56:40.62 | 6:36.47 | 255062 | 284808
15 | 63:17.34 | 4:15.08 | 284809 | 303941


Range status and errors

Selected range

Filename C:\Users\Mike3\Desktop\The Kings of Hip Hop (Flac)\CD1 - Breaks - DJ Premier\Various - The Kings of Hip Hop (CD 1 Breaks - DJ Premier).wav

Peak level 98.9 %
Range quality 100.0 %
Copy CRC 8E7131FE
Copy OK

No errors occurred


AccurateRip summary

Track 1 accurately ripped (confidence 3) [CB0863FE]
Track 2 accurately ripped (confidence 3) [FDD9DE78]
Track 3 accurately ripped (confidence 3) [1B94980F]
Track 4 accurately ripped (confidence 3) [B20E1296]
Track 5 accurately ripped (confidence 3) [850F1F69]
Track 6 accurately ripped (confidence 3) [1D4BBCA8]
Track 7 accurately ripped (confidence 3) [5E24FB45]
Track 8 accurately ripped (confidence 3) [1C0801D8]
Track 9 accurately ripped (confidence 3) [6E5B9CEC]
Track 10 accurately ripped (confidence 3) [73FA6FAE]
Track 11 accurately ripped (confidence 3) [59A69AB6]
Track 12 accurately ripped (confidence 3) [A6C2291C]
Track 13 accurately ripped (confidence 3) [44590980]
Track 14 accurately ripped (confidence 3) [8F169C48]
Track 15 accurately ripped (confidence 2) [427E8533]

All tracks accurately ripped

End of status report


CD2 LOG
Exact Audio Copy V0.99 prebeta 5 from 4. May 2009

EAC extraction logfile from 13. December 2009, 0:12

Various / The Kings of Hip Hop (CD 2 Hip Hop - Mr. Thing)

Used drive : HP DVD Writer 1040r Adapter: 1 ID: 0

Read mode : Secure
Utilize accurate stream : Yes
Defeat audio cache : Yes
Make use of C2 pointers : No

Read offset correction : 6
Overread into Lead-In and Lead-Out : No
Fill up missing offset samples with silence : Yes
Delete leading and trailing silent blocks : No
Null samples used in CRC calculations : Yes
Used interface : Native Win32 interface for Win NT & 2000

Used output format : User Defined Encoder
Selected bitrate : 1024 kBit/s
Quality : High
Add ID3 tag : No
Command line compressor : C:\Program Files\Exact Audio Copy\FLAC\FLAC.EXE
Additional command line options : -5 -V -T "ARTIST=%a" -T "TITLE=%t" -T "ALBUM=%g" -T "DATE=%y" -T "TRACKNUMBER=%n" -T "GENRE=%m" -T "COMMENT=EAC Flac 1.1.2 -5" %s


TOC of the extracted CD

Track | Start | Length | Start sector | End sector
---------------------------------------------------------
1 | 0:00.00 | 1:02.74 | 0 | 4723
2 | 1:02.74 | 3:08.29 | 4724 | 18852
3 | 4:11.28 | 3:04.27 | 18853 | 32679
4 | 7:15.55 | 2:53.18 | 32680 | 45672
5 | 10:08.73 | 5:02.42 | 45673 | 68364
6 | 15:11.40 | 3:24.41 | 68365 | 83705
7 | 18:36.06 | 4:55.44 | 83706 | 105874
8 | 23:31.50 | 1:53.07 | 105875 | 114356
9 | 25:24.57 | 2:07.10 | 114357 | 123891
10 | 27:31.67 | 2:18.08 | 123892 | 134249
11 | 29:50.00 | 3:32.06 | 134250 | 150155
12 | 33:22.06 | 4:11.36 | 150156 | 169016
13 | 37:33.42 | 4:21.00 | 169017 | 188591
14 | 41:54.42 | 3:14.18 | 188592 | 203159
15 | 45:08.60 | 6:05.00 | 203160 | 230534
16 | 51:13.60 | 1:35.54 | 230535 | 237713
17 | 52:49.39 | 4:27.47 | 237714 | 257785


Range status and errors

Selected range

Filename C:\Users\Mike3\Desktop\The Kings of Hip Hop (Flac)\CD2 - Hip Hop - Mr Thing\Various - The Kings of Hip Hop (CD 2 Hip Hop - Mr. Thing).wav

Peak level 99.9 %
Range quality 100.0 %
Copy CRC 4CCD8CD5
Copy OK

No errors occurred


AccurateRip summary

Track 1 accurately ripped (confidence 2) [A368E0C2]
Track 2 accurately ripped (confidence 2) [F1D72365]
Track 3 accurately ripped (confidence 2) [A74895F4]
Track 4 accurately ripped (confidence 2) [885F53DC]
Track 5 accurately ripped (confidence 2) [576BADB8]
Track 6 accurately ripped (confidence 2) [7556FBA1]
Track 7 accurately ripped (confidence 2) [83C084AE]
Track 8 accurately ripped (confidence 2) [2B67F1CF]
Track 9 accurately ripped (confidence 2) [CACC8F8D]
Track 10 accurately ripped (confidence 2) [C6B86547]
Track 11 accurately ripped (confidence 2) [04C5C979]
Track 12 accurately ripped (confidence 2) [F3434D13]
Track 13 accurately ripped (confidence 2) [D94E7607]
Track 14 accurately ripped (confidence 2) [25254B46]
Track 15 accurately ripped (confidence 2) [A982E35C]
Track 16 accurately ripped (confidence 3) [AC20E389]
Track 17 accurately ripped (confidence 3) [80AEB421]

All tracks accurately ripped

End of status report

Files
Lame 320 Kbps = 313MB
Flac 896 ABR Kbps = 827MB



RZA and Keb Darge - The Kings of Funk (2006)

Track listing
Disc 1 (The Rza)

1. Sly & The Family Stone - Small Talk
2. Hank Ballard - From the Love Side
3. Lyn Collins - Do Your Thing
4. Ohio Players - Climax
5. Ohio Players - Singing In The Morning
6. Harlem Underground - Ain't No Sunshine
7. Booker T & MGS - Melting Pot
8. Anne Peebles - You've Got The Papers
9. Ken Boothe - It's Because I'm Black
10. Jimmy Ponder - While My Guitar
11. Honey Cone - If I Can't Fly
12. Bobby Humphries - Jasper Country Man

Disc 2 (Keb Darge)

1. Sharon Jones - Genuine
2. Quantic featuring Spanky Wilson - Don't Joke With A Hungry Man
3. MFSB - Family Affair 1973
4. Brand New - Party Time
5. Mighty Generation - The MG Beat
6. Zebra - Simple Song (Barney Johnson)
7. Madcliff - You Can Make The Change
8. Skying High - Getting Off On Your Loving
9. Anna Raye - Will You Love My Child
10. Dee Edwards - I Can Deal With That

CD1 LOG
Exact Audio Copy V0.99 prebeta 5 from 4. May 2009

EAC extraction logfile from 13. December 2009, 23:06

- / The Kings of Funk (CD1 - RZA)

Used drive : HP DVD Writer 1040r Adapter: 1 ID: 0

Read mode : Secure
Utilize accurate stream : Yes
Defeat audio cache : Yes
Make use of C2 pointers : No

Read offset correction : 6
Overread into Lead-In and Lead-Out : No
Fill up missing offset samples with silence : Yes
Delete leading and trailing silent blocks : No
Null samples used in CRC calculations : Yes
Used interface : Native Win32 interface for Win NT & 2000

Used output format : User Defined Encoder
Selected bitrate : 1024 kBit/s
Quality : High
Add ID3 tag : No
Command line compressor : C:\Program Files\Exact Audio Copy\FLAC\FLAC.EXE
Additional command line options : -5 -V -T "ARTIST=%a" -T "TITLE=%t" -T "ALBUM=%g" -T "DATE=%y" -T "TRACKNUMBER=%n" -T "GENRE=%m" -T "COMMENT=EAC Flac 1.1.2 -5" %s


TOC of the extracted CD

Track | Start | Length | Start sector | End sector
---------------------------------------------------------
1 | 0:00.00 | 3:12.29 | 0 | 14428
2 | 3:12.29 | 3:40.58 | 14429 | 30986
3 | 6:53.12 | 3:18.27 | 30987 | 45863
4 | 10:11.39 | 5:12.16 | 45864 | 69279
5 | 15:23.55 | 2:19.41 | 69280 | 79745
6 | 17:43.21 | 8:12.50 | 79746 | 116695
7 | 25:55.71 | 3:58.21 | 116696 | 134566
8 | 29:54.17 | 3:23.37 | 134567 | 149828
9 | 33:17.54 | 4:11.03 | 149829 | 168656
10 | 37:28.57 | 2:56.22 | 168657 | 181878


Range status and errors

Selected range

Filename C:\Users\Mike3\Desktop\The Kings of Funk (Flac)\CD1 (RZA)\The Kings of Funk (CD1 - RZA).wav

Peak level 99.8 %
Range quality 99.9 %
Copy CRC 38846423
Copy OK

No errors occurred


AccurateRip summary

Track 1 accurately ripped (confidence 3) [DE62550A]
Track 2 accurately ripped (confidence 3) [2991874B]
Track 3 accurately ripped (confidence 3) [0DB74CC0]
Track 4 accurately ripped (confidence 3) [B0ED48E2]
Track 5 accurately ripped (confidence 3) [F519A1BF]
Track 6 accurately ripped (confidence 4) [F5930FA6]
Track 7 accurately ripped (confidence 2) [5249F61C]
Track 8 accurately ripped (confidence 3) [635DD007]
Track 9 accurately ripped (confidence 3) [9271CC2C]
Track 10 accurately ripped (confidence 3) [9F4E5C65]

All tracks accurately ripped

End of status report


CD2 LOG
Exact Audio Copy V0.99 prebeta 5 from 4. May 2009

EAC extraction logfile from 13. December 2009, 22:47

Various / Kings of Funk (CD2 - Keb Darge)

Used drive : HP DVD Writer 1040r Adapter: 1 ID: 0

Read mode : Secure
Utilize accurate stream : Yes
Defeat audio cache : Yes
Make use of C2 pointers : No

Read offset correction : 6
Overread into Lead-In and Lead-Out : No
Fill up missing offset samples with silence : Yes
Delete leading and trailing silent blocks : No
Null samples used in CRC calculations : Yes
Used interface : Native Win32 interface for Win NT & 2000

Used output format : User Defined Encoder
Selected bitrate : 1024 kBit/s
Quality : High
Add ID3 tag : No
Command line compressor : C:\Program Files\Exact Audio Copy\FLAC\FLAC.EXE
Additional command line options : -5 -V -T "ARTIST=%a" -T "TITLE=%t" -T "ALBUM=%g" -T "DATE=%y" -T "TRACKNUMBER=%n" -T "GENRE=%m" -T "COMMENT=EAC Flac 1.1.2 -5" %s


TOC of the extracted CD

Track | Start | Length | Start sector | End sector
---------------------------------------------------------
1 | 0:00.00 | 3:57.36 | 0 | 17810
2 | 3:57.36 | 5:16.29 | 17811 | 41539
3 | 9:13.65 | 2:15.20 | 41540 | 51684
4 | 11:29.10 | 4:17.48 | 51685 | 71007
5 | 15:46.58 | 3:49.49 | 71008 | 88231
6 | 19:36.32 | 3:14.44 | 88232 | 102825
7 | 22:51.01 | 3:03.08 | 102826 | 116558
8 | 25:54.09 | 3:58.46 | 116559 | 134454
9 | 29:52.55 | 2:40.71 | 134455 | 146525
10 | 32:33.51 | 3:23.18 | 146526 | 161768


Range status and errors

Selected range

Filename C:\Users\Mike3\Desktop\The Kings of Funk (Flac)\CD2 (Keb Darge)\Various - Kings of Funk (CD2 - Keb Darge).wav

Peak level 99.8 %
Range quality 100.0 %
Copy CRC 0C49CE95
Copy OK

No errors occurred


AccurateRip summary

Track 1 accurately ripped (confidence 4) [C5C713BD]
Track 2 accurately ripped (confidence 4) [C9AC118C]
Track 3 accurately ripped (confidence 4) [AFA520A3]
Track 4 accurately ripped (confidence 4) [1E96A504]
Track 5 accurately ripped (confidence 4) [09232DE5]
Track 6 accurately ripped (confidence 4) [25E87029]
Track 7 accurately ripped (confidence 4) [FD9CD880]
Track 8 accurately ripped (confidence 4) [837415F7]
Track 9 accurately ripped (confidence 3) [7E4D2A8E]
Track 10 accurately ripped (confidence 4) [36808CC9]

All tracks accurately ripped

End of status report

Files
Lame 320 Kbps = 192MB
Flac 933 ABR Kbps = 527MB



Kon & Amir and DJ Muro - The Kings of Diggin' (2006)

Track listing
Disc 1 (Kon & Amir)

1. Matthew Larkin Cassell - In my life
2. Azymuth - Caca a raposa
3. Tyrone & Carr - Take me with you
4. Unico Blac - A vida
5. Ricardo Marrero - Babalonia
6. Creative Sounds Of The Organization - Smokey feeling
7. Janet Dubios - Queen of the highway (Kons kondensed edit)
8. Henri Pierre Noel - Simbi
9. Harmony Cats - Cats theme (Kon drum edit)
10. Cesar Mariano and Cia - Metropole (Kon drum edit)
11. J. Jones - Feel good
12. Wess And The Airdales - Vehicle
13. Soul Dazz Band - Dazz
14. Hudson County - Bim sala bim
15. Master Story Teller - Pay pay pay (Kon edit)
16. Ray And His Court - Soul freedom
17. Soseme Makonde - Manzara (Kon drum edit)

Disc 2 (DJ Muro)

1. Wild Honey - Straighten em up
2. The Moon People - Hippy skippy moon strut
3. Cocody's Men - Shako
4. The La-Mars - Kool is back
5. The La-Mars - Rock steady
6. Ted Curson & Company - Spiderlegs
7. The Bob Crew Generation - Menage a trois
8. Sound Of The City Experience - Getting down
9. The Black Exotics - Theme of the blackbyrds
10. Gemini Brass - Black water gold
11. Jay Mitchell - Funky fever
12. Together - We're together
13. Heaven Sent & Ecstacy - I'm a lady
14. Palmeira - Tapajos
15. The Disco Fox - The fox
16. Pierce Bros & Co - Bi bi bi di bi dip be happy
17. Carl Marshall - Come groove with me
18. Cindy Rodriguez - What you need is my love
19. Rolando Verara - Me voy para la escuela
20. Con Julian Y Sucombo - Enyere kumbara
21. Tony Middleton - Return to spanish Harlem
22. Frank Hatchett - Latin salsa
23. Juan Pablo Torres - Malaguena
24. The G.T.'s - Watoosi Lucy
25. World Wonders - Flip a coin
26. Count Buffalo & His Rock Band - Soul limbo
27. The Crowns - Jerking dog
28. Koko Taylor - Yes, it's good for you
29. Harva Hodge & The Moddysec - Let the sun shine in
30. IRP-3 - Tema de Soninha
31. Bobby Franklin's Insanity - Don't lose what you got
32. Megaton - Wanna be a hero
33. Frank Hatchett - Status
34. Milton Wright - Let's take a break
35. Rebirth Seven Original - R.B. groove
36. Telstars - World of tomorrow
37. The Dome City Rock Orchestra - Quiet village
38. Ron Dante & Peter Link - Mighty Gents

CD1 LOG
Exact Audio Copy V0.99 prebeta 5 from 4. May 2009

EAC extraction logfile from 13. December 2009, 23:31

Various / The Kings Of Diggin' (CD1 Kon & Amir)

Used drive : HP DVD Writer 1040r Adapter: 1 ID: 0

Read mode : Secure
Utilize accurate stream : Yes
Defeat audio cache : Yes
Make use of C2 pointers : No

Read offset correction : 6
Overread into Lead-In and Lead-Out : No
Fill up missing offset samples with silence : Yes
Delete leading and trailing silent blocks : No
Null samples used in CRC calculations : Yes
Used interface : Native Win32 interface for Win NT & 2000

Used output format : User Defined Encoder
Selected bitrate : 1024 kBit/s
Quality : High
Add ID3 tag : No
Command line compressor : C:\Program Files\Exact Audio Copy\FLAC\FLAC.EXE
Additional command line options : -5 -V -T "ARTIST=%a" -T "TITLE=%t" -T "ALBUM=%g" -T "DATE=%y" -T "TRACKNUMBER=%n" -T "GENRE=%m" -T "COMMENT=EAC Flac 1.1.2 -5" %s


TOC of the extracted CD

Track | Start | Length | Start sector | End sector
---------------------------------------------------------
1 | 0:00.00 | 4:09.58 | 0 | 18732
2 | 4:09.58 | 4:58.22 | 18733 | 41104
3 | 9:08.05 | 2:42.48 | 41105 | 53302
4 | 11:50.53 | 2:33.49 | 53303 | 64826
5 | 14:24.27 | 3:23.67 | 64827 | 80118
6 | 17:48.19 | 3:38.48 | 80119 | 96516
7 | 21:26.67 | 4:26.38 | 96517 | 116504
8 | 25:53.30 | 5:13.01 | 116505 | 139980
9 | 31:06.31 | 4:04.54 | 139981 | 158334
10 | 35:11.10 | 5:49.11 | 158335 | 184520
11 | 41:00.21 | 3:07.21 | 184521 | 198566
12 | 44:07.42 | 2:40.58 | 198567 | 210624
13 | 46:48.25 | 5:21.34 | 210625 | 234733
14 | 52:09.59 | 4:01.28 | 234734 | 252836
15 | 56:11.12 | 6:22.53 | 252837 | 281539
16 | 62:33.65 | 3:56.69 | 281540 | 299308
17 | 66:30.59 | 4:01.24 | 299309 | 317407


Range status and errors

Selected range

Filename C:\Users\Mike3\Desktop\The Kings of Diggin' (Flac)\CD1 (Kon & Amir)\Various - The Kings Of Diggin' (CD1 Kon & Amir).wav

Peak level 99.9 %
Range quality 100.0 %
Copy CRC 383398EE
Copy OK

No errors occurred


AccurateRip summary

Track 1 accurately ripped (confidence 4) [FFAAB7E2]
Track 2 accurately ripped (confidence 4) [E94732C9]
Track 3 accurately ripped (confidence 4) [EA8E6061]
Track 4 accurately ripped (confidence 4) [403D731B]
Track 5 accurately ripped (confidence 4) [2ACBA41A]
Track 6 accurately ripped (confidence 4) [7E953C34]
Track 7 accurately ripped (confidence 4) [8BAF481C]
Track 8 accurately ripped (confidence 4) [1101C378]
Track 9 accurately ripped (confidence 4) [174913FD]
Track 10 accurately ripped (confidence 4) [E367D6C4]
Track 11 accurately ripped (confidence 4) [05F31B69]
Track 12 accurately ripped (confidence 4) [1979527B]
Track 13 accurately ripped (confidence 3) [AB434F3C]
Track 14 accurately ripped (confidence 4) [435AB6B2]
Track 15 accurately ripped (confidence 4) [D6DF174B]
Track 16 accurately ripped (confidence 4) [60E8E788]
Track 17 accurately ripped (confidence 4) [D16A5407]

All tracks accurately ripped

End of status report


CD2 LOG
Exact Audio Copy V0.99 prebeta 5 from 4. May 2009

EAC extraction logfile from 14. December 2009, 0:00

Various / The Kings Of Diggin' (CD2 - DJ Muro)

Used drive : HP DVD Writer 1040r Adapter: 1 ID: 0

Read mode : Secure
Utilize accurate stream : Yes
Defeat audio cache : Yes
Make use of C2 pointers : No

Read offset correction : 6
Overread into Lead-In and Lead-Out : No
Fill up missing offset samples with silence : Yes
Delete leading and trailing silent blocks : No
Null samples used in CRC calculations : Yes
Used interface : Native Win32 interface for Win NT & 2000

Used output format : User Defined Encoder
Selected bitrate : 1024 kBit/s
Quality : High
Add ID3 tag : No
Command line compressor : C:\Program Files\Exact Audio Copy\FLAC\FLAC.EXE
Additional command line options : -5 -V -T "ARTIST=%a" -T "TITLE=%t" -T "ALBUM=%g" -T "DATE=%y" -T "TRACKNUMBER=%n" -T "GENRE=%m" -T "COMMENT=EAC Flac 1.1.2 -5" %s


TOC of the extracted CD

Track | Start | Length | Start sector | End sector
---------------------------------------------------------
1 | 0:00.00 | 1:22.55 | 0 | 6204
2 | 1:22.55 | 1:19.72 | 6205 | 12201
3 | 2:42.52 | 2:47.06 | 12202 | 24732
4 | 5:29.58 | 1:32.27 | 24733 | 31659
5 | 7:02.10 | 1:18.52 | 31660 | 37561
6 | 8:20.62 | 1:37.37 | 37562 | 44873
7 | 9:58.24 | 2:07.23 | 44874 | 54421
8 | 12:05.47 | 1:59.70 | 54422 | 63416
9 | 14:05.42 | 2:12.61 | 63417 | 73377
10 | 16:18.28 | 1:54.14 | 73378 | 81941
11 | 18:12.42 | 2:24.68 | 81942 | 92809
12 | 20:37.35 | 1:44.27 | 92810 | 100636
13 | 22:21.62 | 3:32.25 | 100637 | 116561
14 | 25:54.12 | 1:28.01 | 116562 | 123162
15 | 27:22.13 | 3:12.62 | 123163 | 137624
16 | 30:35.00 | 1:28.14 | 137625 | 144238
17 | 32:03.14 | 1:56.69 | 144239 | 153007
18 | 34:00.08 | 3:30.60 | 153008 | 168817
19 | 37:30.68 | 0:39.49 | 168818 | 171791
20 | 38:10.42 | 0:57.57 | 171792 | 176123
21 | 39:08.24 | 1:24.48 | 176124 | 182471
22 | 40:32.72 | 1:15.67 | 182472 | 188163
23 | 41:48.64 | 1:05.53 | 188164 | 193091
24 | 42:54.42 | 2:10.71 | 193092 | 202912
25 | 45:05.38 | 2:08.72 | 202913 | 212584
26 | 47:14.35 | 1:51.23 | 212585 | 220932
27 | 49:05.58 | 2:36.58 | 220933 | 232690
28 | 51:42.41 | 2:34.50 | 232691 | 244290
29 | 54:17.16 | 1:36.59 | 244291 | 251549
30 | 55:54.00 | 1:58.33 | 251550 | 260432
31 | 57:52.33 | 1:34.10 | 260433 | 267492
32 | 59:26.43 | 0:34.72 | 267493 | 270114
33 | 60:01.40 | 1:15.67 | 270115 | 275806
34 | 61:17.32 | 1:32.34 | 275807 | 282740
35 | 62:49.66 | 0:48.23 | 282741 | 286363
36 | 63:38.14 | 3:59.21 | 286364 | 304309
37 | 67:37.35 | 1:49.74 | 304310 | 312558
38 | 69:27.34 | 4:00.34 | 312559 | 330592


Range status and errors

Selected range

Filename C:\Users\Mike3\Desktop\The Kings of Diggin' (Flac)\CD2 (DJ Muro)\Various - The Kings Of Diggin' (CD2 - DJ Muro).wav

Peak level 99.8 %
Range quality 100.0 %
Copy CRC E5E89FC2
Copy OK

No errors occurred


AccurateRip summary

Track 1 accurately ripped (confidence 4) [BFFEE6A2]
Track 2 accurately ripped (confidence 4) [18B8BA1F]
Track 3 accurately ripped (confidence 4) [222E9F2C]
Track 4 accurately ripped (confidence 4) [C7DFB8A4]
Track 5 accurately ripped (confidence 4) [D869AF3A]
Track 6 accurately ripped (confidence 4) [C5E63877]
Track 7 accurately ripped (confidence 4) [DCC904E8]
Track 8 accurately ripped (confidence 4) [9C12FE3C]
Track 9 accurately ripped (confidence 4) [5A3CCE5E]
Track 10 accurately ripped (confidence 4) [22FA1ED7]
Track 11 accurately ripped (confidence 4) [3F2313DC]
Track 12 accurately ripped (confidence 4) [854051DF]
Track 13 accurately ripped (confidence 4) [B2F91E12]
Track 14 accurately ripped (confidence 4) [80517521]
Track 15 accurately ripped (confidence 4) [6D982E23]
Track 16 accurately ripped (confidence 4) [6543AF55]
Track 17 accurately ripped (confidence 4) [6AED0A79]
Track 18 accurately ripped (confidence 4) [35C24D61]
Track 19 accurately ripped (confidence 4) [CF1A85EB]
Track 20 accurately ripped (confidence 4) [70D9684F]
Track 21 accurately ripped (confidence 4) [6593D4E4]
Track 22 accurately ripped (confidence 4) [A177BF78]
Track 23 accurately ripped (confidence 4) [786010CB]
Track 24 accurately ripped (confidence 4) [502F7CEC]
Track 25 accurately ripped (confidence 4) [39A6F20E]
Track 26 accurately ripped (confidence 4) [58F3892E]
Track 27 accurately ripped (confidence 4) [957BB80F]
Track 28 accurately ripped (confidence 4) [9FA66320]
Track 29 accurately ripped (confidence 4) [50DA660A]
Track 30 accurately ripped (confidence 4) [E2B277B5]
Track 31 accurately ripped (confidence 4) [DF89DF74]
Track 32 accurately ripped (confidence 4) [100269C8]
Track 33 accurately ripped (confidence 4) [43D00419]
Track 34 accurately ripped (confidence 4) [4A52A14C]
Track 35 accurately ripped (confidence 4) [E1972F4C]
Track 36 accurately ripped (confidence 4) [9D4D5EF8]
Track 37 accurately ripped (confidence 4) [4628BFA1]
Track 38 accurately ripped (confidence 4) [2AD75DD2]

All tracks accurately ripped

End of status report

Files
Lame 320 Kbps = 345MB
Flac 939 ABR Kbps = 0.92GB

FSo

Diggin'

320

http://www.filesonic.com/file/26743487/KD_320_.part1.rar
http://www.filesonic.com/file/26743361/KD_320_.part2.rar

Flac

http://www.filesonic.com/file/26743477/KD_Flac_.part1.rar
http://www.filesonic.com/file/26743495/KD_Flac_.part2.rar
http://www.filesonic.com/file/26743499/KD_Flac_.part3.rar
http://www.filesonic.com/file/26743579/KD_Flac_.part4.rar
http://www.filesonic.com/file/26743375/KD_Flac_.part5.rar

Electro

320

http://www.filesonic.com/file/26743489/KE_320_.part1.rar
http://www.filesonic.com/file/26743319/KE_320_.part2.rar

Flac

http://www.filesonic.com/file/26743551/KE_Flac_.part1.rar
http://www.filesonic.com/file/26743393/KE_Flac_.part2.rar
http://www.filesonic.com/file/26743251/KE_Flac_.part3.rar
http://www.filesonic.com/file/26743515/KE_Flac_.part4.rar
http://www.filesonic.com/file/26743491/KE_Flac_.part5.rar

Funk

320


http://www.filesonic.com/file/26743253/KF_320_.rar

Flac

http://www.filesonic.com/file/26743525/KF_Flac_.part1.rar
http://www.filesonic.com/file/26743387/KF_Flac_.part2.rar
http://www.filesonic.com/file/26743321/KF_Flac_.part3.rar

Hip Hop

320

http://www.filesonic.com/file/26743457/KH_320_.part1.rar
http://www.filesonic.com/file/26743355/KH_320_.part2.rar

Flac

http://www.filesonic.com/file/26743425/KH_Flac_.part1.rar
http://www.filesonic.com/file/26743539/KH_Flac_.part2.rar
http://www.filesonic.com/file/26743547/KH_Flac_.part3.rar
http://www.filesonic.com/file/26743391/KH_Flac_.part4.rar
http://www.filesonic.com/file/26743419/KH_Flac_.part5.rar
http://www.filesonic.com/file/26743291/KH_Flac_.part6.rar

Tecno

320

http://www.filesonic.com/file/26743365/KT_320_.part1.rar
http://www.filesonic.com/file/26743467/KT_320_.part2.rar

Flac

http://www.filesonic.com/file/26743377/KT_Flac_.part1.rar
http://www.filesonic.com/file/26743341/KT_Flac_.part2.rar
http://www.filesonic.com/file/26743563/KT_Flac_.part3.rar
http://www.filesonic.com/file/26743459/KT_Flac_.part4.rar
http://www.filesonic.com/file/26743469/KT_Flac_.part5.rar
http://www.filesonic.com/file/26743271/KT_Flac_.part6.rar


FSe


Diggin'

320

http://www.fileserve.com/file/JzFk9Ha/KD_320_.part1.rar
http://www.fileserve.com/file/XAYjcfX/KD_320_.part2.rar

Flac

http://www.fileserve.com/file/uRB2Dww/KD_Flac_.part1.rar
http://www.fileserve.com/file/ZbB5gSX/KD_Flac_.part2.rar
http://www.fileserve.com/file/NGEW8Xt/KD_Flac_.part3.rar
http://www.fileserve.com/file/2f9Durv/KD_Flac_.part4.rar
http://www.fileserve.com/file/aCsUyUK/KD_Flac_.part5.rar

Electro

320

http://www.fileserve.com/file/NnhukxA/KE_320_.part1.rar
http://www.fileserve.com/file/tWnfmsY/KE_320_.part2.rar

Flac

http://www.fileserve.com/file/4tWKchW/KE_Flac_.part1.rar
http://www.fileserve.com/file/hfznnyc/KE_Flac_.part2.rar
http://www.fileserve.com/file/6kpPzGk/KE_Flac_.part3.rar
http://www.fileserve.com/file/jnSrG79/KE_Flac_.part4.rar
http://www.fileserve.com/file/7pA4rHc/KE_Flac_.part5.rar

Funk

320

http://www.fileserve.com/file/Y3sFX4Z/KF_320_.rar

Flac

http://www.fileserve.com/file/FrPgBpW/KF_Flac_.part1.rar
http://www.fileserve.com/file/tCTybqV/KF_Flac_.part2.rar
http://www.fileserve.com/file/U4crpNF/KF_Flac_.part3.rar

Hip Hop

320

http://www.fileserve.com/file/baNrqmD/KH_320_.part1.rar
http://www.fileserve.com/file/Xr2EHhQ/KH_320_.part2.rar

Flac

http://www.fileserve.com/file/DJWXecd/KH_Flac_.part1.rar
http://www.fileserve.com/file/GPrfpps/KH_Flac_.part2.rar
http://www.fileserve.com/file/k2gTcnu/KH_Flac_.part3.rar
http://www.fileserve.com/file/synm8HE/KH_Flac_.part4.rar
http://www.fileserve.com/file/SjhRT2W/KH_Flac_.part5.rar
http://www.fileserve.com/file/ZzTdapY/KH_Flac_.part6.rar

Techno

320

http://www.fileserve.com/file/r4NzePM/KT_320_.part1.rar
http://www.fileserve.com/file/KC3AjXd/KT_320_.part2.rar

Flac

http://www.fileserve.com/file/7xaMXpe/KT_Flac_.part1.rar
http://www.fileserve.com/file/fzdwz6U/KT_Flac_.part2.rar
http://www.fileserve.com/file/uGc8VkA/KT_Flac_.part3.rar
http://www.fileserve.com/file/2hF4ZWf/KT_Flac_.part4.rar
http://www.fileserve.com/file/NJCK7Hf/KT_Flac_.part5.rar
http://www.fileserve.com/file/BPQDed6/KT_Flac_.part6.rar


No mirrors

ADVERTISING » Click here to download Ebooks/Magazines for free « ADVERTISING


Posted By: sausage Date: 25 Dec 2009 08:55:04
thank you so much for this nice series
merry xmas mook45 :)
Posted By: alwayslooking Date: 25 Dec 2009 09:06:24
Quality ,new one
Posted By: kidclam Date: 25 Dec 2009 10:06:47
hi mook45, i am looking "Kings of Jazz" Do you have this one? thanks for the rest!
Posted By: georgex Date: 28 Mar 2010 09:53:50
mooky great work mannnnnnnnnnnn!!!!!!!!
Posted By: orkino Date: 15 Aug 2010 13:37:10
PERFECT COLLECTION... can you re-post/upload the The Kings of Techo CD1? because... No tracks!
Posted By: MWDP Date: 21 Jun 2011 07:37:44
The links for Hip Hop are actually House :( Thanks a lot for Electro and Diggin!