Loading...

Sonny Rollins - Next Album (1972) {MSP9042}

Posted By : tiburon | Date : 07 Mar 2011 14:29:03 | Comments : 2 |
|



Sonny Rollins - Next Album (1972) {MSP9042}
EAC 0.99pb5 | FLAC tracks level 8 | Cue+Log+M3U+MD5 | Full Scans 300dpi | 227MB + 5% Recovery
Genre: Jazz

Sonny Rollins first album after ending his six-year retirement is a particularly strong effort. The highpoint is a ten-minute version of "Skylark" that has a long unaccompanied section by the great tenor. Other memorable selections include "The Everywhere Calypso" and "Playing in the Yard." Rollins plays soprano on "Poinciana" and is heard using electronics (George Cables' electric piano) for the first time but this music is not all that different from what he was playing prior to his retirement.


Track List

01. Playin' In The Yard 10:25
02. Poinciana 9:58
03. The Everywhere Calypso 7:54
04. Keep Hold Of Yourself 4:30
05. Skylark 10:17

musicians

Sonny Rollins - tenor and soprano saxophones
Jack DeJohnette - drums
George Cables - piano,electric piano
Bob Cranshaw - bass,electric bass
David Lee - drums
Arthur Jenkins - conga drums,percussion

Produced by Orrin Keepnews

EAC Logfile

Exact Audio Copy V0.99 prebeta 5 from 4. May 2009

EAC extraction logfile from 26. February 2010, 23:27

Sonny Rollins / Next Album

Used drive : PLEXTOR CD-R PREMIUM2 Adapter: 1 ID: 1

Read mode : Secure
Utilize accurate stream : Yes
Defeat audio cache : Yes
Make use of C2 pointers : No

Read offset correction : 30
Overread into Lead-In and Lead-Out : Yes
Fill up missing offset samples with silence : Yes
Delete leading and trailing silent blocks : No
Null samples used in CRC calculations : Yes
Used interface : Installed external ASPI interface
Gap handling : Appended to previous track

Used output format : User Defined Encoder
Selected bitrate : 32 kBit/s
Quality : High
Add ID3 tag : No
Command line compressor : C:\Programmi\FLAC\flac.exe
Additional command line options : -8 -V -T "ARTIST=%a" -T "TITLE=%t" -T "ALBUM=%g" -T "DATE=%y" -T "TRACKNUMBER=%n" -T "GENRE=%m" -T "COMMENT=EAC FLAC -8" %s


TOC of the extracted CD

Track | Start | Length | Start sector | End sector
---------------------------------------------------------
1 | 0:00.00 | 10:27.62 | 0 | 47086
2 | 10:27.62 | 10:01.38 | 47087 | 92199
3 | 20:29.25 | 7:57.62 | 92200 | 128036
4 | 28:27.12 | 4:32.38 | 128037 | 148474
5 | 32:59.50 | 10:18.60 | 148475 | 194884


Track 1

Filename D:\My Rip\01 - Playin' In The Yard.wav

Pre-gap length 0:00:02.00

Peak level 63.9 %
Track quality 100.0 %
Test CRC 11A249B7
Copy CRC 11A249B7
Track not present in AccurateRip database
Copy OK

Track 2

Filename D:\My Rip\02 - Poinciana.wav

Pre-gap length 0:00:02.56

Peak level 62.2 %
Track quality 100.0 %
Test CRC 70016CB4
Copy CRC 70016CB4
Track not present in AccurateRip database
Copy OK

Track 3

Filename D:\My Rip\03 - The Everywhere Calypso.wav

Pre-gap length 0:00:02.17

Peak level 66.7 %
Track quality 99.9 %
Test CRC 8AEDD4A1
Copy CRC 8AEDD4A1
Track not present in AccurateRip database
Copy OK

Track 4

Filename D:\My Rip\04 - Keep Hold Of Yourself.wav

Pre-gap length 0:00:02.26

Peak level 55.1 %
Track quality 100.0 %
Test CRC 60E9B86A
Copy CRC 60E9B86A
Track not present in AccurateRip database
Copy OK

Track 5

Filename D:\My Rip\05 - Skylark.wav

Pre-gap length 0:00:02.40

Peak level 58.9 %
Track quality 100.0 %
Test CRC 8A62F381
Copy CRC 8A62F381
Track not present in AccurateRip database
Copy OK


None of the tracks are present in the AccurateRip database

No errors occurred

End of status report




The Files Are Interchangeable

A Rip By Sarchiapone

Visit My Blog

ADVERTISING » Click here to download Ebooks/Magazines for free « ADVERTISING


Posted By: Nick Cave Date: 07 Mar 2011 17:38:15
Gracias tiburon, Saludos !!
Posted By: musician3 Date: 07 Mar 2011 19:25:28
Amazing..........Thank You