Loading...

Levon Helm - Levon Helm and the RCO All-Stars - 1977 (1992) [MFSL]

Posted By : mfrwiz | Date : 22 Dec 2009 00:52:52 | Comments : 5 |
|



Levon Helm - Levon Helm and the RCO All-Stars - 1977 (1992) [MFSL]
Lossless (Ape Image File + Cue + Log + Audiochecker Log): 211 Mb | EAC Secure Mode Rip | Mp3 (CBR 320 kbps): 98.7 Mb | HQ Scans | WinRar Files (3% recovery)
Audio CD (1992) - Original Release Date: 1977 - Number of Discs: 1 - Label: MOBILE FIDELITY SOUND LAB - Catalog number: MFCD-1-761
Rock, Rock/Pop

Product Description: The All-Stars were a dream aggregation of of Levon Helm's favourite musicians, including names like Mac Rebennack (aka Dr. John), Paul Butterfield, Booker T. Jones, Donald "Duck" Dunn, Steve Cropper, Tom Malone, Alan Rubin and the two old-timers Henry Glover and Fred Carter from the Hawks-period. Only one track, "Blues So Bad", was written by Levon himself. The songs, recorded partly at Shangri-La and partly at Levon's own RCO studio in Woodstock, were mostly good-time, bar-band rhythm and blues, disappointing Band fans that still were hoping for material more like the early Band albums. Levon Helm and the RCO All Stars stopped at #142 on the album chart, despite several innovative attempts to promote the album, including a mega release party and some very memorable live dates with the All-Stars.


Review: Recorded on New Year's Day, 1977 at the now-vanished Palladium in New York, this set from the legendary Band drummer Levon Helm together with equally well-known fellow musicians like Dr. John, Paul Butterfield, and Steve Cropper is like a hype-free version of THE LAST WALTZ. Songs from the band's eponymous (and deleted) mid-'70s album like "Milk Cow Boogie" and "Rain Down Tears," the latter including Butterfield's ghostly harmonica, are interspersed with the Band favorite "Ophelia" and classics like "Sing Sing Sing" and "Got My Mojo Working." The performances are uniformly stellar, the band rocks and rolls in all the right places, and Helm is in fine voice throughout.

Track Listing:

01 - Washer Woman - 3:16
02 - Tie That Binds - 4:37
03 - You Got Me - 4:22
04 - Blues So Bad - 4:17
05 - Sing Sing Sing (Let's Make A Better World) - 4:09
06 - Milk Cow Boogie - 3:13
07 - Rain Down Tears - 5:24
08 - Mood I was In - 3:44
09 - Havana Moon - 4:31
10 - That's My Home - 3:25
Personnel:

* Paul Butterfield, harmonica
* Steve Cropper, guitar
* Dr. John, guitar/keyboards
* Robbie Robertson, guitar
* Howard Johnson, horn
* Fred Carter, guitar
* Jeanette Baker, vocal
* Donald "Duck" Dunn, bass
* John Flamingo, vocal
* Henry Glover, "band master"
* Garth Hudson, accordion
* Booker T. Jones, keyboards
* Lou Marini, saxophone
* Emmeretta Marks, vocal
* Charles Kaipo Miller Serenaders
* Ray Kinney, saxophone
* Eddie Offord, engineer
* Alan Rubin, trumpet

Download

If you discover any dead links in any of my posts,
Please Send Me a Private Message !!!!

AUDIOCHECKER LOG
AUDIOCHECKER v2.0 beta (build 457) - by Dester - opdester@freemail.hu
~~~~~~~~~~~~~~~~~~~~~~~~~~~~~~~~~~
-=== DO NOT EDIT THIS FILE! ===-

Path: ...\SRLLMLNVL

1 -=- Levon Helm - And The RCO All-Stars.ape -=- CDDA (100%)

668900

EAC LOG
Exact Audio Copy V0.99 prebeta 5 from 4. May 2009

EAC extraction logfile from 21. December 2009, 23:57

Levon Helm / And The RCO All-Stars

Used drive : ASUS CB-5216A Adapter: 4 ID: 0

Read mode : Secure
Utilize accurate stream : Yes
Defeat audio cache : Yes
Make use of C2 pointers : No

Read offset correction : 6
Overread into Lead-In and Lead-Out : No
Fill up missing offset samples with silence : Yes
Delete leading and trailing silent blocks : No
Null samples used in CRC calculations : No
Used interface : Native Win32 interface for Win NT & 2000

Used output format : User Defined Encoder
Selected bitrate : 320 kBit/s
Quality : High
Add ID3 tag : No
Command line compressor : C:\Programmi\Monkey's Audio\wapet.exe
Additional command line options : %d -t "Artist=%a" -t "Title=%t" -t "Album=%g" -t "Year=%y" -t "Track=%n" -t "Genre=%m" "C:\Programmi\Monkey's Audio\MAC.exe" %s %d -c1000


TOC of the extracted CD

Track | Start | Length | Start sector | End sector
---------------------------------------------------------
1 | 0:00.00 | 3:18.30 | 0 | 14879
2 | 3:18.30 | 4:39.35 | 14880 | 35839
3 | 7:57.65 | 4:24.05 | 35840 | 55644
4 | 12:21.70 | 4:18.53 | 55645 | 75047
5 | 16:40.48 | 4:10.57 | 75048 | 93854
6 | 20:51.30 | 3:15.20 | 93855 | 108499
7 | 24:06.50 | 5:25.63 | 108500 | 132937
8 | 29:32.38 | 3:46.07 | 132938 | 149894
9 | 33:18.45 | 4:33.13 | 149895 | 170382
10 | 37:51.58 | 3:25.07 | 170383 | 185764


Range status and errors

Selected range

Filename C:\Documents and Settings\Win Xp\Documenti\Downloads\Torrent\Completati\old\Levon Helm and The RCO All-Stars (MFSL)\SRLLMLNVL\Levon Helm - And The RCO All-Stars.wav

Peak level 92.5 %
Range quality 99.9 %
Copy CRC 47FD88FC
Copy OK

No errors occurred

End of status report

ADVERTISING » Very Fast Download! « ADVERTISING


Posted By: eisler444 Date: 22 Dec 2009 13:13:20
Спасибо!!!
Posted By: herregud Date: 22 Dec 2009 14:38:59
Magnificent!! Many thanks. :-)

M.
Posted By: Dylan Thomas Date: 22 Dec 2009 23:43:17
WOW!!!!!!
been looking for this one for many years. i bought this on cassette tape after seeing them on SNL. fantastic lineup.
thanks my friend.
happy holidays.
Posted By: cvrcmrc Date: 04 Mar 2010 22:32:47
Thank you!
Posted By: pdiddy Date: 29 Jul 2011 17:09:45
Thanks from me

=P