Loading...

Mick Taylor Band - Little Red Rooster

Posted By : SteveJobs | Date : 25 Nov 2009 04:07:28 | Comments : 1 |
|


Mick Taylor Band - Little Red Rooster

Mick Taylor Band - Little Red Rooster (2001)
XLD Rip | Flac (Tracks-5) Cue, Log, m3u, md5, st5, ffp | complete Artwork 300 dpi | 316 MB
Bootleg | Rock , Blues | 2001 | Woodstock Tapes | WT5109

A legal (??) but unauthorized silver CD - Soundboard from a live recording July 2001 (previousely availabe as bootleg "Live In Hungary 2001")
The show was profesionally filmed and recorded and 'I Wonder Why' was later released officially (?) in Hungaria on CD and DVD in 2002 and 2003 respectively.

http://www.nzentgraf.de/books/mt/taylor1.htm



Line-up:
MT (gtr, voc)
Noel Redding (bass; 1st song only)
Andy Cleveland (bass; 2nd song onwards)
John Coghlan (dr)



Mick Taylor Band - Little Red Rooster

Tracklisting:
01 - Catfish Blues 14:14
02 - Red House 11:23
03 - Little Red Rooster 9:07
04 - You Shook Me 8:49
05 - I Wonder Why 9:01




XLD Log
X Lossless Decoder version 20080926 (93.3)

XLD extraction logfile from 2009-01-02 01:26:34 +0100

Mick Taylor Band / Little Red Rooster

Used drive : PIONEER DVD-RW DVR-115D (revision 1.06)

Use cdparanoia mode : YES (CDParanoia III 10.2 engine)
Disable audio cache : OK for the drive with cache less than 2750KB
Make use of C2 pointers : NO
Read offset correction : 48
Max retry count : 100

TOC of the extracted CD
Track | Start | Length | Start sector | End sector
---------------------------------------------------------
1 | 00:00:00 | 14:14:30 | 0 | 64079
2 | 14:14:30 | 11:23:15 | 64080 | 115319
3 | 25:37:45 | 09:07:45 | 115320 | 156389
4 | 34:45:15 | 08:49:15 | 156390 | 196079
5 | 43:34:30 | 09:01:34 | 196080 | 236688

All Tracks
Album gain : -3.00 dB
Peak : 0.988556
Track 01
Filename : /Volumes/Nebucadnezzar 01/00 Music rip and upload/Mick Taylor Band - Little Red Rooster (2007) [FLAC]/01 - Catfish Blues.flac

Track gain : -3.16 dB
Peak : 0.988556
CRC32 hash (test run) : BB80C894
CRC32 hash : BB80C894
CRC32 hash (skip zero) : 3ADAD2D1
AccurateRip signature : A98ABD8C
->Track not present in AccurateRip database.
Statistics
Read error : 0
Skipped (treated as error) : 0
Edge jitter error (maybe fixed) : 0
Atom jitter error (maybe fixed) : 0
Drift error (maybe fixed) : 0
Dropped bytes error (maybe fixed) : 0
Duplicated bytes error (maybe fixed) : 0
Inconsistency in error sectors : 0

Track 02
Filename : /Volumes/Nebucadnezzar 01/00 Music rip and upload/Mick Taylor Band - Little Red Rooster (2007) [FLAC]/02 - Red House.flac

Track gain : -1.82 dB
Peak : 0.988556
CRC32 hash (test run) : D7A7B239
CRC32 hash : D7A7B239
CRC32 hash (skip zero) : D37D7BC5
AccurateRip signature : 51EA1009
->Track not present in AccurateRip database.
Statistics
Read error : 0
Skipped (treated as error) : 0
Edge jitter error (maybe fixed) : 0
Atom jitter error (maybe fixed) : 0
Drift error (maybe fixed) : 0
Dropped bytes error (maybe fixed) : 0
Duplicated bytes error (maybe fixed) : 0
Inconsistency in error sectors : 0

Track 03
Filename : /Volumes/Nebucadnezzar 01/00 Music rip and upload/Mick Taylor Band - Little Red Rooster (2007) [FLAC]/03 - Little Red Rooster.flac

Track gain : -3.04 dB
Peak : 0.988556
CRC32 hash (test run) : DB7FDB10
CRC32 hash : DB7FDB10
CRC32 hash (skip zero) : 5AFB373A
AccurateRip signature : CB09FCB8
->Track not present in AccurateRip database.
Statistics
Read error : 0
Skipped (treated as error) : 0
Edge jitter error (maybe fixed) : 0
Atom jitter error (maybe fixed) : 0
Drift error (maybe fixed) : 0
Dropped bytes error (maybe fixed) : 0
Duplicated bytes error (maybe fixed) : 0
Inconsistency in error sectors : 0

Track 04
Filename : /Volumes/Nebucadnezzar 01/00 Music rip and upload/Mick Taylor Band - Little Red Rooster (2007) [FLAC]/04 - You Shook Me.flac

Track gain : -3.65 dB
Peak : 0.988525
CRC32 hash (test run) : 8F017F11
CRC32 hash : 8F017F11
CRC32 hash (skip zero) : 3A6BFCC0
AccurateRip signature : 855F8933
->Track not present in AccurateRip database.
Statistics
Read error : 0
Skipped (treated as error) : 0
Edge jitter error (maybe fixed) : 0
Atom jitter error (maybe fixed) : 0
Drift error (maybe fixed) : 0
Dropped bytes error (maybe fixed) : 0
Duplicated bytes error (maybe fixed) : 0
Inconsistency in error sectors : 0

Track 05
Filename : /Volumes/Nebucadnezzar 01/00 Music rip and upload/Mick Taylor Band - Little Red Rooster (2007) [FLAC]/05 - I Wonder Why.flac

Track gain : -2.97 dB
Peak : 0.988525
CRC32 hash (test run) : 778DBCD8
CRC32 hash : 778DBCD8
CRC32 hash (skip zero) : 57CC9115
AccurateRip signature : 55B99F15
->Track not present in AccurateRip database.
Statistics
Read error : 0
Skipped (treated as error) : 0
Edge jitter error (maybe fixed) : 0
Atom jitter error (maybe fixed) : 0
Drift error (maybe fixed) : 0
Dropped bytes error (maybe fixed) : 0
Duplicated bytes error (maybe fixed) : 0
Inconsistency in error sectors : 0

No errors occurred

End of status report









ADVERTISING » Free Fast Download! « ADVERTISING


Posted By: Aldoux Date: 25 Nov 2009 12:39:43
Thanks Thanks Thanks!!!