Loading...

Jennifer Rush - The Power Of Love (International Version) - 1985 [Japan]

Posted By : popsakov | Date : 09 Sep 2010 08:06:01 | Comments : 1 |
|


1

Jennifer Rush - The Power Of Love (International Version) - 1985 [Japan]
EAC | FLAC APE, Img+Cue, Log+Checker | ~ 385 Mb | Covers
MP3 CBR320 | ~ 98 Mb | HF, FileServe | 3% Recovery
Genre: Pop, Soft Rock | Label: CBS | Catalog#: 32-8P-122

accuratrip

Jennifer Rush (The Power Of Love - International Version) is the debut album by American singer Jennifer Rush.
Based In Germany, Rush teamed up with producers Candy DeRouge and Gunther Mende and released the first two singles from this album; "Into My Dreams" and "Come Give Me Your Hand" in 1983. It was in 1984 however that she found her first success with the hit "25 Lovers". This was followed by "Ring of Ice" and then with the song she would become famous the world over for - "The Power of Love". In 1985 the song became a massive success and reached No.1 in the UK for five weeks, selling well over a million copies. It was at the time the biggest selling single ever by a female artist and is still one of the biggest selling singles ever. Success in her native US proved elusive however as the single was just a minor hit.
With this album having been released in Germany in 1984, it was repackaged and released internationally in late 1985. The album became a big seller, reaching No.7 in the UK and No.2 in Germany, remaining on the charts there for 99 weeks. "Ring of Ice" was chosen as the follow-up single, which also became a top 20 hit in the UK.

Track List:

01. Madonna's Eyes [03:41]
02. 25 Lovers [03:39]
03. Come Give Me Your Hand [03:51]
04. Nobody Move [03:16]
05. Never Gonna Turn Back Again [03:30]
06. Ring Of Ice [03:52]
07. Into My Dreams [04:03]
08. I See A Shadow (Not A Fantasy) [04:20]
09. Surrender [03:15]
10. The Power Of Love [05:47]

Log EAC
Exact Audio Copy V0.99 prebeta 5 from 4. May 2009

EAC extraction logfile from 30. March 2010, 20:01

Jennifer Rush / The Power Of Love (International Version)

Used drive : ASUS DRW-1608P Adapter: 2 ID: 1

Read mode : Secure
Utilize accurate stream : Yes
Defeat audio cache : Yes
Make use of C2 pointers : No

Read offset correction : 48
Overread into Lead-In and Lead-Out : No
Fill up missing offset samples with silence : Yes
Delete leading and trailing silent blocks : No
Null samples used in CRC calculations : Yes
Used interface : Installed external ASPI interface

Used output format : User Defined Encoder
Selected bitrate : 1024 kBit/s
Quality : High
Add ID3 tag : No
Command line compressor : C:\Program Files (x86)\Exact Audio Copy\Flac\flac.exe
Additional command line options : -5 -V -T "ARTIST=%a" -T "TITLE=%t" -T "ALBUM=%g" -T "DATE=%y" -T "TRACKNUMBER=%n" -T "GENRE=%m" -T "COMMENT=EAC FLAC -5" %s


TOC of the extracted CD

Track | Start | Length | Start sector | End sector
---------------------------------------------------------
1 | 0:00.00 | 3:45.00 | 0 | 16874
2 | 3:45.00 | 3:36.55 | 16875 | 33129
3 | 7:21.55 | 3:51.37 | 33130 | 50491
4 | 11:13.17 | 3:15.33 | 50492 | 65149
5 | 14:28.50 | 3:29.62 | 65150 | 80886
6 | 17:58.37 | 3:52.43 | 80887 | 98329
7 | 21:51.05 | 4:03.57 | 98330 | 116611
8 | 25:54.62 | 4:18.05 | 116612 | 135966
9 | 30:12.67 | 3:15.70 | 135967 | 150661
10 | 33:28.62 | 5:46.00 | 150662 | 176611


Range status and errors

Selected range

Filename F:\Jennifer Rush - The Power Of Love (Intnl. Ver.) - 1984 (Japan)\Jennifer Rush - The Power Of Love (International Version).wav

Peak level 100.0 %
Range quality 100.0 %
Test CRC 30FE2292
Copy CRC 30FE2292
Copy OK

No errors occurred


AccurateRip summary

Track 1 accurately ripped (confidence 3) [6411302E]
Track 2 accurately ripped (confidence 3) [62C657A3]
Track 3 accurately ripped (confidence 3) [D72CAAAF]
Track 4 accurately ripped (confidence 3) [0DAF9620]
Track 5 accurately ripped (confidence 3) [7C7263E6]
Track 6 accurately ripped (confidence 3) [4F07F849]
Track 7 accurately ripped (confidence 3) [DA3157D4]
Track 8 accurately ripped (confidence 3) [44CC01A4]
Track 9 accurately ripped (confidence 3) [5443593D]
Track 10 accurately ripped (confidence 3) [941CBEE7]

All tracks accurately ripped

End of status report

AUDIOCHECKER Log
AUDIOCHECKER v2.0 beta (build 457) - by Dester - opdester@freemail.hu
~~~~~~~~~~~~~~~~~~~~~~~~~~~~~~~~~~
-=== НЕ РЕДАКТИРУЙТЕ ЭТОТ ФАЙЛ! ===-

Путь: ...\Jennifer Rush - The Power Of Love (International Version)1984 [Japan]

1 -=- Jennifer Rush - The Power Of Love (International Version).flac -=- CDDA (100%)

111265908

2

3


LOSSLESS

HF:
part 1 | part 2 | part 3 | part 4

FileServe:
part 1 | part 2 | part 3 | part 4


mp3

HF || FileServe

pass: shsv

In case you encounter dead links, please send me a private message!

Visit my blog!

ADVERTISING » Very Fast Download! « ADVERTISING


Posted By: wersollsschonsein Date: 09 Sep 2010 10:03:22
Cheers from Eire.