Loading...

Fausto Papetti - Greatest Hits (2CD) - 2009

Posted By : v3122 | Date : 11 Oct 2009 11:06:29 | Comments : 1 |
|


Fausto Papetti - Greatest Hits (2CD) - 2009

Fausto Papetti - Greatest Hits (2CD) - 2009
EAC-APE(Image) + CUE + LOG | ~950 MB | 3% Recovery | 26 + 24 Tracks
Genre: Instrumental/Saxophone | Label: Higher Octave Music | ISBN: 4 607147 894651


Fausto Papetti (January 28, 1923 – June 15, 1999) was an Italian alto saxophone player.

He was born at Viggiù in Lombardy.

His performance of the song "Love's Theme" (originally by Barry White's Love Unlimited Orchestra) was featured on the breakbeat compilation "Ultimate Breaks and Beats".

Papetti became well known for all the years '60 and '70, and all his new album reaches the top of the hit parade; he was also printed in all the Latin American market. During the period of greatest splendour, the '70s, Papetti also produced two collections a year, the best-selling being the 20th one, which came up first in 1975.

These records are also characterized for the sexy covers on which girls posed indecently. He become a real father of that musical kind, and in the '70s many imitators appeared, like Johnny Sax or Piergiorgio Farina.
Wiki


Tracklist CD1:
01. Emmanuelle
02. Femmes
03. Elise
04. El Bimbo
05. Melodia
06. Honesty
07. Theme From Paradise
08. Io Che Non Vivo
09. Moon River
10. L'ete Indien
11. Why Don't You Do Right
12. Je T`Aime Moi Non Plus
13. Hello Dolly
14. As Times Goes By
15. Tema D'Amore Del Film
16. Sleepy Lagoon
17. Estate Violenta
18. Johnny Guitar
19. Pink Panther Theme
20. Michelle
21. Too Much Heaven
22. Insensatez
23. Nuestra Felicidad
24. Do You Think I Am Sexy
25. Ol'man River
26. More

Tracklist CD2:
01. Einsame Hirte
02. The Windmils On Your Mind
03. Strangers In The Night
04. Alone Again
05. The Shadow Of Your Smile
06. Tema Di Adriana
07. The House Of The Rising Sun
08. Harlem Nocturno
09. Woman In Love
10. Feelings
11. Tema Di Nadia
12. Brasilia Carnaval
13. Love Story
14. Un Uomo E Una Donna
15. El Tinto
16. Amazon River
17. Just That Same Old
18. L'Ultima Neve Di Primavera
19. Sunday Party
20. Angela
21. Smoke Gets In Your Eyes
22. Georgia On My Mind
23. Song Song Blue
24. Concerto Per Venezia

EAC LOG CD1

Exact Audio Copy V0.99 prebeta 5 from 4. May 2009

Отчёт EAC об извлечении, выполненном 2. октября 2009, 14:36

Fausto Papetti / Greatest Hits (CD1)

Дисковод: PIONEER DVD-RW DVR-217F Adapter: 4 ID: 0

Режим чтения : Достоверность
Использование точного потока : Да
Отключение кэша аудио : Да
Использование указателей C2 : Нет

Коррекция смещения при чтении : 96
Способность читать области Lead-in и Lead-out : Нет
Заполнение пропущенных сэмплов тишиной : Да
Удаление блоков с тишиной в начале и конце : Нет
При вычислениях CRC использовались нулевые сэмплы : Да
Интерфейс : Установленный внешний ASPI-интерфейс

Выходной формат : Внутренние WAV-операции
Формат сэмплов : 44.100 Гц; 16 бит; стерео


TOC извлечённого CD

Трек | Старт | Длительность | Начальный сектор | Конечный сектор
---------------------------------------------------------------------
1 | 0:00.00 | 3:24.37 | 0 | 15336
2 | 3:24.37 | 4:05.47 | 15337 | 33758
3 | 7:30.09 | 2:45.50 | 33759 | 46183
4 | 10:15.59 | 2:23.63 | 46184 | 56971
5 | 12:39.47 | 3:05.70 | 56972 | 70916
6 | 15:45.42 | 3:39.65 | 70917 | 87406
7 | 19:25.32 | 3:20.11 | 87407 | 102417
8 | 22:45.43 | 2:06.10 | 102418 | 111877
9 | 24:51.53 | 3:16.39 | 111878 | 126616
10 | 28:08.17 | 3:16.15 | 126617 | 141331
11 | 31:24.32 | 3:07.50 | 141332 | 155406
12 | 34:32.07 | 3:06.00 | 155407 | 169356
13 | 37:38.07 | 1:55.16 | 169357 | 177997
14 | 39:33.23 | 3:38.26 | 177998 | 194373
15 | 43:11.49 | 3:27.49 | 194374 | 209947
16 | 46:39.23 | 2:36.09 | 209948 | 221656
17 | 49:15.32 | 2:38.26 | 221657 | 233532
18 | 51:53.58 | 3:07.68 | 233533 | 247625
19 | 55:01.51 | 3:00.51 | 247626 | 261176
20 | 58:02.27 | 4:10.67 | 261177 | 279993
21 | 62:13.19 | 3:24.43 | 279994 | 295336
22 | 65:37.62 | 2:34.36 | 295337 | 306922
23 | 68:12.23 | 3:08.17 | 306923 | 321039
24 | 71:20.40 | 3:44.21 | 321040 | 337860
25 | 75:04.61 | 2:17.68 | 337861 | 348203
26 | 77:22.54 | 2:20.08 | 348204 | 358711


Характеристики диапазона извлечения и сообщения об ошибках

Выбранный диапазон

Имя файла G:\Temp\Fausto Papetti - Greatest Hits (CD1).wav

Пиковый уровень 100.0 %
Качество диапазона 100.0 %
CRC копии 3DFFF5B7
Копирование... OK

Ошибок не произошло

Конец отчёта

EAC LOG CD2

Exact Audio Copy V0.99 prebeta 5 from 4. May 2009

Отчёт EAC об извлечении, выполненном 2. октября 2009, 14:55

Fausto Papetti / Greatest Hits (CD2)

Дисковод: PIONEER DVD-RW DVR-217F Adapter: 4 ID: 0

Режим чтения : Достоверность
Использование точного потока : Да
Отключение кэша аудио : Да
Использование указателей C2 : Нет

Коррекция смещения при чтении : 96
Способность читать области Lead-in и Lead-out : Нет
Заполнение пропущенных сэмплов тишиной : Да
Удаление блоков с тишиной в начале и конце : Нет
При вычислениях CRC использовались нулевые сэмплы : Да
Интерфейс : Установленный внешний ASPI-интерфейс

Выходной формат : Внутренние WAV-операции
Формат сэмплов : 44.100 Гц; 16 бит; стерео


TOC извлечённого CD

Трек | Старт | Длительность | Начальный сектор | Конечный сектор
---------------------------------------------------------------------
1 | 0:00.00 | 4:00.39 | 0 | 18038
2 | 4:00.39 | 3:15.37 | 18039 | 32700
3 | 7:16.01 | 2:42.03 | 32701 | 44853
4 | 9:58.04 | 3:38.27 | 44854 | 61230
5 | 13:36.31 | 2:32.45 | 61231 | 72675
6 | 16:09.01 | 2:31.58 | 72676 | 84058
7 | 18:40.59 | 4:05.15 | 84059 | 102448
8 | 22:45.74 | 3:04.07 | 102449 | 116255
9 | 25:50.06 | 3:18.27 | 116256 | 131132
10 | 29:08.33 | 3:37.39 | 131133 | 147446
11 | 32:45.72 | 3:05.39 | 147447 | 161360
12 | 35:51.36 | 4:18.29 | 161361 | 180739
13 | 40:09.65 | 2:59.08 | 180740 | 194172
14 | 43:08.73 | 3:05.25 | 194173 | 208072
15 | 46:14.23 | 3:28.28 | 208073 | 223700
16 | 49:42.51 | 4:16.11 | 223701 | 242911
17 | 53:58.62 | 2:54.25 | 242912 | 255986
18 | 56:53.12 | 4:03.24 | 255987 | 274235
19 | 60:56.36 | 4:09.67 | 274236 | 292977
20 | 65:06.28 | 3:42.20 | 292978 | 309647
21 | 68:48.48 | 2:31.47 | 309648 | 321019
22 | 71:20.20 | 2:39.46 | 321020 | 332990
23 | 73:59.66 | 2:35.15 | 332991 | 344630
24 | 76:35.06 | 2:59.04 | 344631 | 358059


Характеристики диапазона извлечения и сообщения об ошибках

Выбранный диапазон

Имя файла G:\Temp\Fausto Papetti - Greatest Hits (CD2).wav

Пиковый уровень 100.0 %
Качество диапазона 100.0 %
CRC копии 13CE3DAE
Копирование... OK

Ошибок не произошло

Конец отчёта

Audiochecker Log CD1

AUDIOCHECKER v2.0 beta (build 457) - by Dester - opdester@freemail.hu
~~~~~~~~~~~~~~~~~~~~~~~~~~~~~~~~~~
-=== DO NOT EDIT THIS FILE! ===-

Path: ...\CD1

1 -=- Fausto Papetti - Greatest Hits (CD1).ape -=- CDDA (100%)

61674804

Audiochecker Log CD2

AUDIOCHECKER v2.0 beta (build 457) - by Dester - opdester@freemail.hu
~~~~~~~~~~~~~~~~~~~~~~~~~~~~~~~~~~
-=== DO NOT EDIT THIS FILE! ===-

Path: ...\CD2

1 -=- Fausto Papetti - Greatest Hits (CD2).ape -=- CDDA (100%)

61359412


Archive content:
1. 2 APE files
2. 2 CUE files
3. 2 EAC Log files
4. .txt file(tracklist)
5. Folder(153Kb) with 2 jpeg files(front and back).

Turbobit:
part 1
part 2

Rapidshare links:
part 1
part 2
part 3
part 4
part 5

See also:
Joe Dassin - Greatest Hits (2CD) - 2007

ADVERTISING » Very Fast Download! « ADVERTISING


Posted By: athome Date: 09 Sep 2010 12:20:47
Thank you very much for this fine FP collection.
Looking forward to some smooth sounds.