Loading...

Lightnin' Hopkins - Complete Prestige Bluesville (7 CD BOX SET) - 1991

Posted By : mfrwiz | Date : 20 Jan 2010 20:58:49 | Comments : 9 |
|



Lightnin' Hopkins - Complete Prestige Bluesville (7 CD BOX SET) - 1991
Lossless (WavPack Image File + Cue + Log + Audio Identifier Report Included): 2.22 Gb | EAC Secure Mode Rip | Mp3 (Fraunhofer IIS - 320 kbps): 1.3 Gb | HQ Scans | Rar Files (3% Recovery)
Audio CD (November 5, 1991) - Number of Discs: 7 - Label: Prestige/Bluesville - Catalog Number: 7PCD-4406-2
Blues

Biography: Sam Hopkins was a Texas country bluesman of the highest caliber whose career began in the 1920s and stretched all the way into the 1980s. Along the way, Hopkins watched the genre change remarkably, but he never appreciably altered his mournful Lone Star sound, which translated onto both acoustic and electric guitar. Hopkins' nimble dexterity made intricate boogie riffs seem easy, and his fascinating penchant for improvising lyrics to fit whatever situation might arise made him a beloved blues troubadour. Hopkins' brothers John Henry and Joel were also talented bluesmen, but it was Sam who became a star. In 1920, he met the legendary Blind Lemon Jefferson at a social function, and even got a chance to play with him. Later, Hopkins served as Jefferson's guide. In his teens, Hopkins began working with another pre-war great, singer Texas Alexander, who was his cousin. A mid-'30s stretch in Houston's County Prison Farm for the young guitarist interrupted their partnership for a time, but when he was freed, Hopkins hooked back up with the older bluesman. The pair was dishing out their lowdown brand of blues in Houston's Third Ward in 1946 when talent scout Lola Anne Cullum came across them. She had already engineered a pact with Los Angeles-based Aladdin Records for another of her charges, pianist Amos Milburn, and Cullum saw the same sort of opportunity within Hopkins' dusty country blues. Alexander wasn't part of the deal; instead, Cullum paired Hopkins with pianist Wilson "Thunder" Smith, sensibly re-christened the guitarist "Lightnin'," and presto! Hopkins was very soon an Aladdin recording artist. "Katie May," cut on November 9, 1946, in L.A. with Smith lending a hand on the 88s, was Lightnin' Hopkins' first regional seller of note. He recorded prolifically for Aladdin in both L.A. and Houston into 1948, scoring a national R&B hit for the firm with his "Shotgun Blues." "Short Haired Woman," "Abilene," and "Big Mama Jump," among many Aladdin gems, were evocative Texas blues rooted in an earlier era. A load of other labels recorded the wily Hopkins after that, both in a solo context and with a small rhythm section: Modern/RPM (his uncompromising "Tim Moore's Farm" was an R&B hit in 1949); Gold Star (where he hit with "T-Model Blues" that same year); Sittin' in With ("Give Me Central 209" and "Coffee Blues" were national chart entries in 1952) and its Jax subsidiary; the major labels Mercury and Decca; and, in 1954, a remarkable batch of sides for Herald where Hopkins played blistering electric guitar on a series of blasting rockers ("Lightnin's Boogie," "Lightnin's Special," and the amazing "Hopkins' Sky Hop") in front of drummer Ben Turner and bassist Donald Cooks (who must have had bleeding fingers, so torrid were some of the tempos). But Hopkins' style was apparently too rustic and old-fashioned for the new generation of rock & roll enthusiasts (they should have checked out "Hopkins' Sky Hop"). He was back on the Houston scene by 1959, largely forgotten. Fortunately, folklorist Mack McCormick rediscovered the guitarist, who was dusted off and presented as a folk-blues artist; a role that Hopkins was born to play. Pioneering musicologist Sam Charters produced Hopkins in a solo context for Folkways Records that same year, cutting an entire LP in Hopkins' tiny apartment (on a borrowed guitar). The results helped introduced his music to an entirely new audience. Lightnin' Hopkins went from gigging at back-alley gin joints to starring at collegiate coffeehouses, appearing on TV programs, and touring Europe to boot. His once-flagging recording career went right through the roof, with albums for World Pacific; Vee-Jay; Bluesville; Bobby Robinson's Fire label (where he cut his classic "Mojo Hand" in 1960); Candid; Arhoolie; Prestige; Verve; and, in 1965, the first of several LPs for Stan Lewis' Shreveport-based Jewel logo. Hopkins generally demanded full payment before he'd deign to sit down and record, and seldom indulged a producer's desire for more than one take of any song. His singular sense of country time befuddled more than a few unseasoned musicians; from the 1960s on, his solo work is usually preferable to band-backed material. Filmmaker Les Blank captured the Texas troubadour's informal lifestyle most vividly in his acclaimed 1967 documentary, The Blues Accordin' to Lightnin' Hopkins. As one of the last great country bluesmen, Hopkins was a fascinating figure who bridged the gap between rural and urban styles.


Product Description: This is a seven-CD box set that repackages all 11 LPs that Lightnin' Hopkins recorded for Bluesville and Prestige during the first half of the 1960s: Last Night Blues, Lightnin', Blues in My Bottle, Walkin' This Road By Myself, Lightnin' and Co., Smokes Like Lightning, Hootin' the Blues, Goin' Away, Down Home Blues, Soul Blues and My Life in the Blues. The very prolific Hopkins (who was never loyal to any one label) also recorded for Candid, Arhoolie, Fire and Vee Jay during the period! The bulk of My Life in the Blues is actually a lengthy and rather historic interview that Samuel Charters conducted with Hopkins. A special bonus of the set is 13 often exciting tracks from a previously unissued concert at the Swarthmore College Folk Festival. The music throughout the box covers quite a variety of moods and subject matter (with Hopkins being unaccompanied on 34 of the tracks) and definitively sums up the veteran bluesman's later period.


Review: Sam "Lightnin'" Hopkins was and still is one of the most under appreciated bluesmen of all time. This box set contains a treasure trove of songs recorded by Lightnin' including the legendary Swarthmore Concert that is worth the price of the box set alone. Fans of "real" blues guitar playing will not be disappointed with anything in this collection delivered with Lightnin's trademark guitar licks and vocal stylings. Highly recommended. ~ Amazon Customer


Track Listing:

CD1

01 - Rocky Mountain - 5:01
02 - Got To Move Your Baby - 4:05
03 - So Sorry To Leave You - 4:23
04 - Take A Trip With Me - 5:07
05 - Last Night Blues - 5:19
06 - Lightnin's Stroke - 4:58
07 - Hard To Love A Woman - 4:04
08 - Conversation Blues - 3:54
09 - Automobile Blues - 4:34
10 - You Better Watch Yourself - 5:01
11 - Mean Old Frisco - 3:43
12 - Shinin' Moon - 4:09
13 - Come Back Baby - 3:30
14 - Thinkin' 'Bout An Old Friend - 5:08
15 - The Walkin' Blues - 3:26
16 - Back To New Orleans - 3:22
17 - Katie Mae - 4:05
18 - Down There Baby - 4:07

CD2

01 - Black Gal - 4:12
02 - Baby Don't You Tear My Clothes - 3:48
03 - Good Morning Little School Girl - 3:10
04 - Coffee Blues - 3:42
05 - Buddy Brown's Blues (98 Degree Blues) - 4:07
06 - Wine Spodee-O-Dee - 3:05
07 - Sail on, Little Girl, Sail on - 4:20
08 - DC-7 - 4:33
09 - Death Bells - 3:54
10 - Goin' To Dallas To See My Pony Run - 3:51
11 - Jailhouse Blues - 3:20
12 - Blues In The Bottle - 3:17
13 - Beans, Beans, Beans - 2:28
14 - Catfish Blues - 4:19
15 - My Grandpa Is Old Too! - 3:04
16 - T Model Blues - 2:52
17 - Jackstropper Blues - 3:28
18 - You Cook All Right - 4:20
19 - You Never Miss Your Water - 2:42
20 - Let's Do The Suzie Q - 3:44
21 - Smokes Like Lightning - 5:14

CD3

01 - How Many More Years I Got To Let You Dog Me Around - 3:02
02 - Black Cadillac - 3:41
03 - Walkin' This Road By Myself - 4:54
04 - The Devil Jumped The Black Man - 4:14
05 - My Baby Don't Stand No Cheating - 2:09
06 - You Is One Black Rat - 2:31
07 - The Fox Chase - 3:20
08 - Mojo Hand - 3:23
09 - Mama Blues - 5:18
10 - My Black Name - 4:01
11 - Ida Mae - 5:30
12 - Prison Farm Blues - 4:35
13 - Worried Life Blues - 2:58
14 - Happy Blues For John Glenn - 5:24
15 - Sinner's Prayer - 3:48
16 - Angel Child - 3:36
17 - I Got A Leak In This Old Building - 5:23
18 - Pneumonia Blues - 3:32
19 - Have You Ever Been Mistreated - 4:04

CD4

01 - Blues Is A Feeling - 8:03
02 - Me And Ray Charles - 3:37
03 - In The Evening - 3:22
04 - Ain't It Crazy - 2:27
05 - Last Night I Lost The Best Friend I Ever Had - 4:37
06 - Everything - 3:00
07 - I Work Down On The Chain Gang - 5:13
08 - Meet Me In The Bottom - 2:31
09 - Business You're Doin' - 3:21
10 - Wake Up Old Lady - 4:27
11 - Stranger Here - 5:53
12 - Don't Embarrass Me, Baby - 3:24
13 - Little Sister's Boogie - 3:34
14 - Goin' Away - 5:49
15 - You Better Stop Her - 4:42
16 - I'm Wit' It - 4:03
17 - Let's Go Sit On The Lawn - 4:16
18 - I Woke Up This Morning - 5:53

CD5

01 - Baby, Please Don't Go [#] - 4:25
02 - My Black Cadillac [#] - 5:49
03 - It's Crazy [#] - 4:34
04 - Mojo Hand [#] - 3:40
05 - My Babe [#] - 3:41
06 - Short Haired Woman [#] - 5:04
07 - Mean Old Frisco [#] - 2:29
08 - Trouble In Mind [#] - 3:24
09 - The Twister [#] - 3:45
10 - Green Onion [#] - 3:02
11 - Sun Goin' Down [#] - 3:39
12 - Come Go Home With Me [#] - 3:40
13 - I'm A Stranger [#] - 4:22
14 - I Got Tired - 4:40
15 - I Like To Boogie - 3:54
16 - I Asked The Bossman - 6:47
17 - I'm Taking A Devil Of A Chance - 3:57
18 - Just A Wristwatch On My Arm - 3:35

CD6

01 - I Was Standing On 75 Highway - 5:11
02 - Get It Straight - 1:31
03 - I'm Going To Build Me A Heaven Of My Own - 5:59
04 - My Babe - 3:24
05 - Too Many Drivers - 3:32
06 - I'm A Crawling Black Snake - 4:52
07 - Rocky Mountain Blues - 3:54
08 - I Mean Goodbye - 3:03
09 - The Howling Wolf - 3:56
10 - Black Ghost Blues - 3:33
11 - Darling, Do You Remember Me? - 3:41
12 - Lonesome Graveyard - 5:32
13 - I Don't Want To Do Nothing To You - 2:35
14 - You Is One Black Rat - 3:12
15 - Got Nowhere To Lay My Head - 6:29
16 - Just Boogyin' - 2:25
17 - Take Me Back - 2:12
18 - I Was Down On Dowling Street - 5:11

CD7

01 - I Growed Up With The Blues - 5:07
02 - My Family - 4:29
03 - I Learn About The Blues - 6:21
04 - I First Come Into Houston - 3:23
05 - I Meet Texas Alexander - 5:17
06 - They Was Hard Times - 6:10
07 - I Do My First Record And Get My Name - 5:24
08 - My Thoughts On The Blues - 5:24
Personnel:

Lightnin' Hopkins - Primary Artist, Guitar, Vocals
Billy Bizor - Harmonica
Sonny Terry & Brownie McGhee - Harmonica
Leonard Gaskin - Bass
Samuel Charters - Track Performer
Donald Cooks - Bass
Belton Evans - Drums
Herb Lovelle - Drums
Buster Pickens - Piano
Spider Kilpatrick - Drums
If you discover any dead links in any of my posts,
Please Send Me a Private Message !!!!

EAC LOG CD1
Exact Audio Copy V0.99 prebeta 5 from 4. May 2009

EAC extraction logfile from 20. January 2010, 18:25

Hopkins, Lightnin' / Complete Prestige/Bluesville Recordings - Disc 1

Used drive : Pioneer BDR-203BK Adapter: 7 ID: 0

Read mode : Secure
Utilize accurate stream : Yes
Defeat audio cache : Yes
Make use of C2 pointers : No

Read offset correction : 667
Overread into Lead-In and Lead-Out : No
Fill up missing offset samples with silence : Yes
Delete leading and trailing silent blocks : No
Null samples used in CRC calculations : No
Used interface : Native Win32 interface for Win NT & 2000

Used output format : User Defined Encoder
Selected bitrate : 128 kBit/s
Quality : High
Add ID3 tag : No
Command line compressor : C:\WINDOWS\system32\wavpack-4.60.1\wavpack.exe
Additional command line options : -hmx3 -w "Year=%y" -w "Genre=%m" %s %d


TOC of the extracted CD

Track | Start | Length | Start sector | End sector
---------------------------------------------------------
1 | 0:00.00 | 5:02.60 | 0 | 22709
2 | 5:02.60 | 4:06.36 | 22710 | 41195
3 | 9:09.21 | 4:25.22 | 41196 | 61092
4 | 13:34.43 | 5:09.21 | 61093 | 84288
5 | 18:43.64 | 5:20.52 | 84289 | 108340
6 | 24:04.41 | 4:59.72 | 108341 | 130837
7 | 29:04.38 | 4:06.19 | 130838 | 149306
8 | 33:10.57 | 3:56.24 | 149307 | 167030
9 | 37:07.06 | 4:36.19 | 167031 | 187749
10 | 41:43.25 | 5:02.49 | 187750 | 210448
11 | 46:45.74 | 3:44.64 | 210449 | 227312
12 | 50:30.63 | 4:11.07 | 227313 | 246144
13 | 54:41.70 | 3:32.21 | 246145 | 262065
14 | 58:14.16 | 5:10.27 | 262066 | 285342
15 | 63:24.43 | 3:27.36 | 285343 | 300903
16 | 66:52.04 | 3:23.54 | 300904 | 316182
17 | 70:15.58 | 4:07.24 | 316183 | 334731
18 | 74:23.07 | 4:06.37 | 334732 | 353218


Range status and errors

Selected range

Filename O:\-=Music 4\-=Da Condividere\Lightnin' Hopkins - Complete Prestige Bluesville - 1991\r2GygntH\CD1\Hopkins, Lightnin' - Complete Prestige Bluesville Recordings - Disc 1.wav

Peak level 100.0 %
Range quality 100.0 %
Copy CRC 1F0DF12C
Copy OK

No errors occurred

End of status report

EAC LOG CD2
Exact Audio Copy V0.99 prebeta 5 from 4. May 2009

EAC extraction logfile from 20. January 2010, 18:43

Hopkins, Lightnin' / Complete Prestige/Bluesville Recordings - Disc 2

Used drive : Pioneer BDR-203BK Adapter: 7 ID: 0

Read mode : Secure
Utilize accurate stream : Yes
Defeat audio cache : Yes
Make use of C2 pointers : No

Read offset correction : 667
Overread into Lead-In and Lead-Out : No
Fill up missing offset samples with silence : Yes
Delete leading and trailing silent blocks : No
Null samples used in CRC calculations : No
Used interface : Native Win32 interface for Win NT & 2000

Used output format : User Defined Encoder
Selected bitrate : 128 kBit/s
Quality : High
Add ID3 tag : No
Command line compressor : C:\WINDOWS\system32\wavpack-4.60.1\wavpack.exe
Additional command line options : -hmx3 -w "Year=%y" -w "Genre=%m" %s %d


TOC of the extracted CD

Track | Start | Length | Start sector | End sector
---------------------------------------------------------
1 | 0:00.00 | 4:13.60 | 0 | 19034
2 | 4:13.60 | 3:49.46 | 19035 | 36255
3 | 8:03.31 | 3:12.07 | 36256 | 50662
4 | 11:15.38 | 3:44.00 | 50663 | 67462
5 | 14:59.38 | 4:09.01 | 67463 | 86138
6 | 19:08.39 | 3:06.42 | 86139 | 100130
7 | 22:15.06 | 4:22.06 | 100131 | 119786
8 | 26:37.12 | 4:35.00 | 119787 | 140411
9 | 31:12.12 | 3:56.19 | 140412 | 158130
10 | 35:08.31 | 3:53.19 | 158131 | 175624
11 | 39:01.50 | 3:21.63 | 175625 | 190762
12 | 42:23.38 | 3:18.39 | 190763 | 205651
13 | 45:42.02 | 2:29.69 | 205652 | 216895
14 | 48:11.71 | 4:20.64 | 216896 | 236459
15 | 52:32.60 | 3:06.12 | 236460 | 250421
16 | 55:38.72 | 2:53.54 | 250422 | 263450
17 | 58:32.51 | 3:29.42 | 263451 | 279167
18 | 62:02.18 | 4:21.39 | 279168 | 298781
19 | 66:23.57 | 2:43.46 | 298782 | 311052
20 | 69:07.28 | 3:45.63 | 311053 | 327990
21 | 72:53.16 | 5:13.72 | 327991 | 351537


Range status and errors

Selected range

Filename O:\-=Music 4\-=Da Condividere\Lightnin' Hopkins - Complete Prestige Bluesville - 1991\r2GygntH\CD2\Hopkins, Lightnin' - Complete Prestige Bluesville Recordings - Disc 2.wav

Peak level 100.0 %
Range quality 100.0 %
Copy CRC 0269F1A2
Copy OK

No errors occurred

End of status report

EAC LOG CD3
Exact Audio Copy V0.99 prebeta 5 from 4. May 2009

EAC extraction logfile from 20. January 2010, 18:50

Lightnin' Hopkins / The Complete Prestige/Bluesville Recordings - Disc 3

Used drive : Pioneer BDR-203BK Adapter: 7 ID: 0

Read mode : Secure
Utilize accurate stream : Yes
Defeat audio cache : Yes
Make use of C2 pointers : No

Read offset correction : 667
Overread into Lead-In and Lead-Out : No
Fill up missing offset samples with silence : Yes
Delete leading and trailing silent blocks : No
Null samples used in CRC calculations : No
Used interface : Native Win32 interface for Win NT & 2000

Used output format : User Defined Encoder
Selected bitrate : 128 kBit/s
Quality : High
Add ID3 tag : No
Command line compressor : C:\WINDOWS\system32\wavpack-4.60.1\wavpack.exe
Additional command line options : -hmx3 -w "Year=%y" -w "Genre=%m" %s %d


TOC of the extracted CD

Track | Start | Length | Start sector | End sector
---------------------------------------------------------
1 | 0:00.00 | 3:03.66 | 0 | 13790
2 | 3:03.66 | 3:43.12 | 13791 | 30527
3 | 6:47.03 | 4:55.36 | 30528 | 52688
4 | 11:42.39 | 4:16.18 | 52689 | 71906
5 | 15:58.57 | 2:11.06 | 71907 | 81737
6 | 18:09.63 | 2:33.00 | 81738 | 93212
7 | 20:42.63 | 3:22.19 | 93213 | 108381
8 | 24:05.07 | 3:25.18 | 108382 | 123774
9 | 27:30.25 | 5:19.45 | 123775 | 147744
10 | 32:49.70 | 4:02.42 | 147745 | 165936
11 | 36:52.37 | 5:31.67 | 165937 | 190828
12 | 42:24.29 | 4:36.39 | 190829 | 211567
13 | 47:00.68 | 2:59.60 | 211568 | 225052
14 | 50:00.53 | 5:26.31 | 225053 | 249533
15 | 55:27.09 | 3:50.22 | 249534 | 266805
16 | 59:17.31 | 3:38.31 | 266806 | 283186
17 | 62:55.62 | 5:24.45 | 283187 | 307531
18 | 68:20.32 | 3:34.30 | 307532 | 323611
19 | 71:54.62 | 4:03.42 | 323612 | 341878


Range status and errors

Selected range

Filename O:\-=Music 4\-=Da Condividere\Lightnin' Hopkins - Complete Prestige Bluesville - 1991\r2GygntH\CD3\Lightnin' Hopkins - The Complete Prestige Bluesville Recordings - Disc 3.wav

Peak level 100.0 %
Range quality 100.0 %
Copy CRC 2DCA697C
Copy OK

No errors occurred

End of status report

EAC LOG CD4
Exact Audio Copy V0.99 prebeta 5 from 4. May 2009

EAC extraction logfile from 20. January 2010, 19:00

Hopkins, Lightnin' / Complete Prestige/Bluesville Recordings - Disc 4

Used drive : Pioneer BDR-203BK Adapter: 7 ID: 0

Read mode : Secure
Utilize accurate stream : Yes
Defeat audio cache : Yes
Make use of C2 pointers : No

Read offset correction : 667
Overread into Lead-In and Lead-Out : No
Fill up missing offset samples with silence : Yes
Delete leading and trailing silent blocks : No
Null samples used in CRC calculations : No
Used interface : Native Win32 interface for Win NT & 2000

Used output format : User Defined Encoder
Selected bitrate : 128 kBit/s
Quality : High
Add ID3 tag : No
Command line compressor : C:\WINDOWS\system32\wavpack-4.60.1\wavpack.exe
Additional command line options : -hmx3 -w "Year=%y" -w "Genre=%m" %s %d


TOC of the extracted CD

Track | Start | Length | Start sector | End sector
---------------------------------------------------------
1 | 0:00.00 | 8:05.12 | 0 | 36386
2 | 8:05.12 | 3:39.34 | 36387 | 52845
3 | 11:44.46 | 3:24.09 | 52846 | 68154
4 | 15:08.55 | 2:28.49 | 68155 | 79303
5 | 17:37.29 | 4:39.00 | 79304 | 100228
6 | 22:16.29 | 3:02.34 | 100229 | 113912
7 | 25:18.63 | 5:14.64 | 113913 | 137526
8 | 30:33.52 | 2:32.34 | 137527 | 148960
9 | 33:06.11 | 3:23.27 | 148961 | 164212
10 | 36:29.38 | 4:28.51 | 164213 | 184363
11 | 40:58.14 | 5:55.00 | 184364 | 210988
12 | 46:53.14 | 3:25.64 | 210989 | 226427
13 | 50:19.03 | 3:35.47 | 226428 | 242599
14 | 53:54.50 | 5:50.42 | 242600 | 268891
15 | 59:45.17 | 4:44.04 | 268892 | 290195
16 | 64:29.21 | 4:04.72 | 290196 | 308567
17 | 68:34.18 | 4:18.29 | 308568 | 327946
18 | 72:52.47 | 5:53.24 | 327947 | 354445


Range status and errors

Selected range

Filename O:\-=Music 4\-=Da Condividere\Lightnin' Hopkins - Complete Prestige Bluesville - 1991\r2GygntH\CD4\Hopkins, Lightnin' - Complete Prestige Bluesville Recordings - Disc 4.wav

Peak level 100.0 %
Range quality 99.9 %
Copy CRC B5F04147
Copy OK

No errors occurred

End of status report

EAC LOG CD5
Exact Audio Copy V0.99 prebeta 5 from 4. May 2009

EAC extraction logfile from 20. January 2010, 19:06

Hopkins, Lightnin' / Complete Prestige/Bluesville Recordings - Disc 5

Used drive : Pioneer BDR-203BK Adapter: 7 ID: 0

Read mode : Secure
Utilize accurate stream : Yes
Defeat audio cache : Yes
Make use of C2 pointers : No

Read offset correction : 667
Overread into Lead-In and Lead-Out : No
Fill up missing offset samples with silence : Yes
Delete leading and trailing silent blocks : No
Null samples used in CRC calculations : No
Used interface : Native Win32 interface for Win NT & 2000

Used output format : User Defined Encoder
Selected bitrate : 128 kBit/s
Quality : High
Add ID3 tag : No
Command line compressor : C:\WINDOWS\system32\wavpack-4.60.1\wavpack.exe
Additional command line options : -hmx3 -w "Year=%y" -w "Genre=%m" %s %d


TOC of the extracted CD

Track | Start | Length | Start sector | End sector
---------------------------------------------------------
1 | 0:00.00 | 4:27.16 | 0 | 20040
2 | 4:27.16 | 5:51.19 | 20041 | 46384
3 | 10:18.35 | 4:36.34 | 46385 | 67118
4 | 14:54.69 | 3:41.64 | 67119 | 83757
5 | 18:36.58 | 3:42.39 | 83758 | 100446
6 | 22:19.22 | 5:06.00 | 100447 | 123396
7 | 27:25.22 | 2:31.12 | 123397 | 134733
8 | 29:56.34 | 3:26.12 | 134734 | 150195
9 | 33:22.46 | 3:46.52 | 150196 | 167197
10 | 37:09.23 | 3:03.49 | 167198 | 180971
11 | 40:12.72 | 3:41.34 | 180972 | 197580
12 | 43:54.31 | 3:41.54 | 197581 | 214209
13 | 47:36.10 | 4:23.46 | 214210 | 233980
14 | 51:59.56 | 4:41.64 | 233981 | 255119
15 | 56:41.45 | 3:55.52 | 255120 | 272796
16 | 60:37.22 | 6:48.46 | 272797 | 303442
17 | 67:25.68 | 3:58.52 | 303443 | 321344
18 | 71:24.45 | 3:35.31 | 321345 | 337500


Range status and errors

Selected range

Filename O:\-=Music 4\-=Da Condividere\Lightnin' Hopkins - Complete Prestige Bluesville - 1991\r2GygntH\CD5\Hopkins, Lightnin' - Complete Prestige Bluesville Recordings - Disc 5.wav

Peak level 100.0 %
Range quality 100.0 %
Copy CRC 20357034
Copy OK

No errors occurred

End of status report

EAC LOG CD6
Exact Audio Copy V0.99 prebeta 5 from 4. May 2009

EAC extraction logfile from 20. January 2010, 19:15

Lightnin' Hopkins / The Complete Prestige/Bluesville Recordings - Disc 6

Used drive : Pioneer BDR-203BK Adapter: 7 ID: 0

Read mode : Secure
Utilize accurate stream : Yes
Defeat audio cache : Yes
Make use of C2 pointers : No

Read offset correction : 667
Overread into Lead-In and Lead-Out : No
Fill up missing offset samples with silence : Yes
Delete leading and trailing silent blocks : No
Null samples used in CRC calculations : No
Used interface : Native Win32 interface for Win NT & 2000

Used output format : User Defined Encoder
Selected bitrate : 128 kBit/s
Quality : High
Add ID3 tag : No
Command line compressor : C:\WINDOWS\system32\wavpack-4.60.1\wavpack.exe
Additional command line options : -hmx3 -w "Year=%y" -w "Genre=%m" %s %d


TOC of the extracted CD

Track | Start | Length | Start sector | End sector
---------------------------------------------------------
1 | 0:00.00 | 5:12.69 | 0 | 23468
2 | 5:12.69 | 1:33.36 | 23469 | 30479
3 | 6:46.30 | 6:01.24 | 30480 | 57578
4 | 12:47.54 | 3:25.37 | 57579 | 72990
5 | 16:13.16 | 3:33.46 | 72991 | 89011
6 | 19:46.62 | 4:54.04 | 89012 | 111065
7 | 24:40.66 | 3:55.49 | 111066 | 128739
8 | 28:36.40 | 3:04.64 | 128740 | 142603
9 | 31:41.29 | 3:57.45 | 142604 | 160423
10 | 35:38.74 | 3:34.52 | 160424 | 176525
11 | 39:13.51 | 3:42.69 | 176526 | 193244
12 | 42:56.45 | 5:33.60 | 193245 | 218279
13 | 48:30.30 | 2:37.34 | 218280 | 230088
14 | 51:07.64 | 3:13.45 | 230089 | 244608
15 | 54:21.34 | 6:31.12 | 244609 | 273945
16 | 60:52.46 | 2:27.12 | 273946 | 284982
17 | 63:19.58 | 2:14.09 | 284983 | 295041
18 | 65:33.67 | 5:10.45 | 295042 | 318336


Range status and errors

Selected range

Filename O:\-=Music 4\-=Da Condividere\Lightnin' Hopkins - Complete Prestige Bluesville - 1991\r2GygntH\CD6\Lightnin' Hopkins - The Complete Prestige Bluesville Recordings - Disc 6.wav

Peak level 93.0 %
Range quality 100.0 %
Copy CRC 2677C1FF
Copy OK

No errors occurred

End of status report

EAC LOG CD7
Exact Audio Copy V0.99 prebeta 5 from 4. May 2009

EAC extraction logfile from 20. January 2010, 19:19

Lightnin' Hopkins / The Complete Prestige Bluesville Recordings - Disc 7 (Lightnin Hopkins as interviewed by Samuel Charters)

Used drive : Pioneer BDR-203BK Adapter: 7 ID: 0

Read mode : Secure
Utilize accurate stream : Yes
Defeat audio cache : Yes
Make use of C2 pointers : No

Read offset correction : 667
Overread into Lead-In and Lead-Out : No
Fill up missing offset samples with silence : Yes
Delete leading and trailing silent blocks : No
Null samples used in CRC calculations : No
Used interface : Native Win32 interface for Win NT & 2000

Used output format : User Defined Encoder
Selected bitrate : 128 kBit/s
Quality : High
Add ID3 tag : No
Command line compressor : C:\WINDOWS\system32\wavpack-4.60.1\wavpack.exe
Additional command line options : -hmx3 -w "Year=%y" -w "Genre=%m" %s %d


TOC of the extracted CD

Track | Start | Length | Start sector | End sector
---------------------------------------------------------
1 | 0:00.00 | 5:08.51 | 0 | 23150
2 | 5:08.51 | 4:30.48 | 23151 | 43448
3 | 9:39.24 | 6:23.00 | 43449 | 72173
4 | 16:02.24 | 3:25.27 | 72174 | 87575
5 | 19:27.51 | 5:18.45 | 87576 | 111470
6 | 24:46.21 | 6:11.42 | 111471 | 139337
7 | 30:57.63 | 5:25.72 | 139338 | 163784
8 | 36:23.60 | 5:23.72 | 163785 | 188081


Range status and errors

Selected range

Filename O:\-=Music 4\-=Da Condividere\Lightnin' Hopkins - Complete Prestige Bluesville - 1991\r2GygntH\CD7\Lightnin' Hopkins - The Complete Prestige Bluesville Recordings - Disc 7 (Lightnin Hopkins as interviewed by Samuel Charters).wav

Peak level 66.9 %
Range quality 99.9 %
Copy CRC 39DD90E7
Copy OK

No errors occurred

End of status report


ADVERTISING » Very Fast Download! « ADVERTISING


Posted By: wersollsschonsein Date: 20 Jan 2010 21:23:11
This makes my day! Cheers from Ireland.
Posted By: bird13 Date: 20 Jan 2010 22:51:24
Some Rapidshare links that actually connected to Rapidshare would help,
these go nowhere but in circles.
Posted By: namrats417 Date: 21 Jan 2010 05:23:01
Thanks a lot !

I can only vouch for the lossy links in this instance and they are working fine with my downloader
Posted By: wersollsschonsein Date: 21 Jan 2010 08:24:38
Yes, all Links are fine.
Cheers again
Posted By: jhendrix Date: 21 Jan 2010 15:27:46
oh it is sooo good,give me more!!thanks from germany
Posted By: mr. magoo Date: 22 Jan 2010 03:02:42
WOW!! Just the other day I was looking to buy this box set and here it shows up while I was trolling thru the lossless posts. Makes my day also. Got it bookmarked and will download in the morning. Thanks again. :D
Posted By: lubitel11 Date: 24 Jan 2010 07:56:51
Great! Thank you! The one and only Lightnin', the man who made me want to learn to play music more than 20 years ago...
XD
Posted By: Larsan44 Date: 11 Sep 2010 00:04:17
Thx! very nice post.
Posted By: neden1961 Date: 20 Jun 2012 21:00:11
thanks mfrwiz !!!