Loading...

Bread - Guitar Man (1972)

Posted By : popsakov | Date : 09 Dec 2010 08:19:50 | Comments : 8 |
|


1

Bread - Guitar Man (1972)
EAC | FLAC, Img+Cue, Log+Checker | ~ 297 Mb | Covers Included
MP3 CBR320 | ~ 122 Mb | FileSonic, HotFile | 3% Recovery
Genre: Rock | Label: Elektra | Catalog#: 9 60918-2 | USA

accuratrip

Guitar Man is the fifth album released by Bread in 1972.

2

Bread - Biography

Bread were the melodic soft-rock band, best known for the hits "If" and "Make it with You".

The band were formed by singer/keyboard player/producer David Gates and singer guitarist James Griffin in 1968, originally the idea had been to continue Griffin's, already established, solo career, by having producer-Gates work on Griffin's next album. However, when another guitarist Robb Royer was brought onboard, Bread were formed. They released their self-titled debut album in 1968, which showcased the soft rock sound that the band became famous for, however sales were slow and they would have to wait for the follow-up for success. The next album On the Waters included "Make it with You" which topped the US charts, the band added a drummer, Mike Botts, to the line-up and took to the road. The album became the bands' first gold-seller.

Despite the success of the lead single "If" from Manna, sales didn't match its predecessor and it was back to the studio for the band, this time minus Royer, who had left the band, replaced by Larry Knetchtel. The new line-up came back with "Baby I'm- a Want You" and "Everything I Own", both hit the top five and the band were back on a roll, when Baby I'm- a Want You achieved their highest chart placing of No.3.

The critically acclaimed Guitar Man was without a top ten hit and sales of the album were disappointing, which lead to tensions between Gates and Griffin; an argument over song credits put the band on hold for four years.

In 1977 Bread hit the singles charts for the last time with "Lost Without your Love", from the album of the same name, released the previous year. When tensions between Gates and Griffin re-emerged, Griffin left, while Gates carried on touring with the name Bread. Inevitably a legal wrangle over the ownership of the name etc. ensued, and all things Bread-related were off the menu until the resolution of the argument in 1984. Meantime both Gates and Griffin pursued solo careers. They got back together in 1996 for the 25th Anniversary Tour, but any further releases by Bread were compilations of previous hits.
~ from Internet

2

Track List:

01. Welcome to the Music [02:57]
02. The Guitar Man [03:46]
03. Make It by Yourself [03:50]
04. Aubrey [03:40]
05. Fancy Dancer [03:34]
06. Sweet Surrender [02:37]
07. Tecolote [04:36]
08. Let Me Go [03:27]
09. Yours for Life [03:22]
10. Picture in Your Mind [04:42]
11. Don't Tell Me No [03:35]
12. Didn't Even Know Her Name [03:10]

Personnel:

David Gates - vocals, guitar, bass, keyboards
James Griffin - vocals, guitar, keyboards
Larry Knechtel - keyboards, bass, guitar
Mike Botts - drums

Log EAC
Exact Audio Copy V0.99 prebeta 5 from 4. May 2009

Отчёт EAC об извлечении, выполненном 8. марта 2010, 18:44

Bread / Guitar Man

Дисковод: Optiarc DVD RW AD-7200S Adapter: 2 ID: 0

Режим чтения : Достоверность
Использование точного потока : Да
Отключение кэша аудио : Да
Использование указателей C2 : Нет

Коррекция смещения при чтении : 48
Способность читать области Lead-in и Lead-out : Нет
Заполнение пропущенных сэмплов тишиной : Да
Удаление блоков с тишиной в начале и конце : Нет
При вычислениях CRC использовались нулевые сэмплы : Да
Интерфейс : Встроенный Win32-интерфейс для Win NT/2000

Выходной формат : Внутренние WAV-операции
Формат сэмплов : 44.100 Гц; 16 бит; стерео


TOC извлечённого CD

Трек | Старт | Длительность | Начальный сектор | Конечный сектор
---------------------------------------------------------------------
1 | 0:00.32 | 2:57.20 | 32 | 13326
2 | 2:57.52 | 3:46.20 | 13327 | 30296
3 | 6:43.72 | 3:50.20 | 30297 | 47566
4 | 10:34.17 | 3:39.38 | 47567 | 64029
5 | 14:13.55 | 3:33.25 | 64030 | 80029
6 | 17:47.05 | 2:38.22 | 80030 | 91901
7 | 20:25.27 | 4:35.58 | 91902 | 112584
8 | 25:01.10 | 3:27.10 | 112585 | 128119
9 | 28:28.20 | 3:21.42 | 128120 | 143236
10 | 31:49.62 | 4:41.73 | 143237 | 164384
11 | 36:31.60 | 3:34.62 | 164385 | 180496
12 | 40:06.47 | 3:09.50 | 180497 | 194721


Характеристики диапазона извлечения и сообщения об ошибках

Выбранный диапазон

Имя файла E:\МОИ РАЗДАЧИ\Bread - 5 CD ELEKTRA\Bread - Guitar Man.wav

Пиковый уровень 100.0 %
Качество диапазона 99.9 %
CRC копии 2A7448A0
Копирование... OK

Ошибок не произошло


AccurateRip: сводка

Трек 1 точное извлечение (доверие 7) [F21AFEBF]
Трек 2 точное извлечение (доверие 6) [BFB868D5]
Трек 3 точное извлечение (доверие 7) [2BAD9CFB]
Трек 4 точное извлечение (доверие 6) [6A6A6498]
Трек 5 точное извлечение (доверие 6) [C4C2B875]
Трек 6 точное извлечение (доверие 6) [A18BDC58]
Трек 7 точное извлечение (доверие 7) [139C84FB]
Трек 8 точное извлечение (доверие 6) [91F24243]
Трек 9 точное извлечение (доверие 7) [461771F7]
Трек 10 точное извлечение (доверие 7) [E339A1D8]
Трек 11 точное извлечение (доверие 7) [26B0E9DE]
Трек 12 точное извлечение (доверие 7) [0C55CBFF]

Все треки извлечены точно

Конец отчёта

AUDIOCHECKER Log
AUDIOCHECKER v2.0 beta (build 457) - by Dester - opdester@freemail.hu
~~~~~~~~~~~~~~~~~~~~~~~~~~~~~~~~~~
-=== DO NOT EDIT THIS FILE! ===-

Path: ...\Bread - Guitar Man (1972)

1 -=- Bread - Guitar Man.flac -=- CDDA (100%)

3333508

Accurip Log
[Verification date: 29.11.2010 23:40:19]
[Disc ID: 001315ab-00b32fe4-940a240c]
Pregap length 00:00:32.
Track [ CRC ] Status
01 [f21afebf] (08/10) Accurately ripped as in pressing(s) #1
02 [bfb868d5] (07/09) Accurately ripped as in pressing(s) #1
03 [2bad9cfb] (08/10) Accurately ripped as in pressing(s) #1
04 [6a6a6498] (07/09) Accurately ripped as in pressing(s) #1
05 [c4c2b875] (07/09) Accurately ripped as in pressing(s) #1
06 [a18bdc58] (07/09) Accurately ripped as in pressing(s) #1
07 [139c84fb] (08/10) Accurately ripped as in pressing(s) #1
08 [91f24243] (07/09) Accurately ripped as in pressing(s) #1
09 [461771f7] (08/10) Accurately ripped as in pressing(s) #1
10 [e339a1d8] (08/10) Accurately ripped as in pressing(s) #1
11 [26b0e9de] (08/10) Accurately ripped as in pressing(s) #1
12 [0c55cbff] (08/10) Accurately ripped as in pressing(s) #1
Offsetted by -1322:
01 [a0a0ce49] (02/10) Accurately ripped as in pressing(s) #2
02 [17bcfc80] (02/09) Accurately ripped as in pressing(s) #2
03 [9d2c2830] (02/10) Accurately ripped as in pressing(s) #2
04 [b28aab4a] (02/09) Accurately ripped as in pressing(s) #2
05 [72a55b9a] (02/09) Accurately ripped as in pressing(s) #2
06 [291792c5] (02/09) Accurately ripped as in pressing(s) #2
07 [ff0cf715] (02/10) Accurately ripped as in pressing(s) #2
08 [058f7a91] (02/09) Accurately ripped as in pressing(s) #2
09 [df4b65c5] (02/10) Accurately ripped as in pressing(s) #2
10 [418eaae3] (02/10) Accurately ripped as in pressing(s) #2
11 [c67db641] (02/10) Accurately ripped as in pressing(s) #2
12 [b19cf317] (02/10) Accurately ripped as in pressing(s) #2

Track [ CRC32 ] [W/O NULL] [ LOG ]
-- [2A7448A0] [B5AADD12] CRC32
01 [1BC87178] [E48FBBFB]
02 [1334B466] [638FE895]
03 [5B96E35A] [F49C62C4]
04 [AE2D1E6B] [8A04E48D]
05 [093CAFD1] [730BC52D]
06 [C576CC27] [E52F6A30]
07 [2D9E5B44] [B011220A]
08 [A96C71E3] [EED7C9F6]
09 [35A6F1B8] [50AEE337]
10 [A8A0FEEA] [E17E4744]
11 [EB2E517D] [6569E8FC]
12 [0136CCF0] [F0E4127E]

3

4


LOSSLESS

FileSonic:

part 1 | part 2 | part 3

HotFile:

part 1 | part 2 | part 3


mp3

FileSonic: part 1 | FileSonic: part 2

HotFile: part 1 | HotFile: part 2

pass: shsv

In case you encounter dead links, please send me a private message!

Visit my blog!

All thanks go to "виктор юрьевич"

ADVERTISING » Click here to download Ebooks/Magazines for free « ADVERTISING


Posted By: jack335 Date: 09 Dec 2010 09:56:06
Tks for all the Bread posts. Remember the old time...
Posted By: didou Date: 09 Dec 2010 10:33:24
Thx a lot popsakov :)
Posted By: firepower Date: 09 Dec 2010 17:51:44
I grabbed this one and the other Bread albums too. Some I have in mp3 but I didn't even have a mp3 of this one. Thanks!
Posted By: elcho Date: 09 Dec 2010 20:07:19
Thank you for the Bread's albums. Now waiting for "Lost Without your Love"
Posted By: Tuckertje Date: 10 Dec 2010 09:40:54
Thanks very much from Holland
Posted By: humyaimakmak Date: 11 Dec 2010 12:51:07
Thanks very much.
Posted By: diluiz Date: 24 Dec 2010 21:59:41
Thanks a lot
Posted By: billy joe Date: 07 Jan 2011 04:46:20
many thanks.