Loading...

Red Hot Chili Peppers - The Uplift Mofo Party Plan (1987/2013) [Official Digital Download 24bit/192kHz]

Posted By : HiDefVagon | Date : 31 May 2013 10:46:22 | Comments : 0 |
|



Red Hot Chili Peppers - The Uplift Mofo Party Plan (1987/2013)
FLAC (tracks) 24 bit/192 kHz | Time - 38:06 minutes | 1,61 GB
Official Digital Download - Source: | Front cover

The Uplift Mofo Party Plan is the groundbreaking 1987 masterpiece by the Red Hot Chili Peppers. It is the sole album to include all four founding members on every track and features the band’s signature blend of funk-rock with influences of reggae and heavy metal. This Gold-certified work was the band’s first album to reach the Billboard 200. It features the hit standouts “Fight Like A Brave” and “Behind The Sun”.

In a perfect world, the Red Hot Chili Peppers' breakthrough album wouldn't have been 1989's Mother's Milk, but 1987's The Uplift Mofo Party Plan, and the history of this groundbreaking rock/rap band (and likely the entire subgenre it created) would've been drastically changed. But the Chili Peppers created most of the imperfections in their world, especially in the late '80s, and the unusual scenario of four original bandmembers recording together for the first time on that band's third album would tragically prove to be a one-shot deal. Veterans Anthony Kiedis (vocals) and Flea (bass) had welcomed back original guitarist Hillel Slovak for the preceding Freaky Styley album after using Jack Sherman on their self-titled 1984 debut, doing the same at this point for original drummer Jack Irons, who replaced Cliff Martinez. The energy of having these four friends from Los Angeles back together jumps out of the opening anthem "Fight Like a Brave" and the experimental "Funky Crime"; tracks like the autobiographical "Me & My Friends" and closing "Organic Anti-Beat Box Band" would stay in the group's live repertoire for the next decade or more. Kiedis' barking rap delivery drives the cover of Bob Dylan's "Subterranean Homesick Blues," and Flea's ahead-of-their-time slapping basslines stand out in "Behind the Sun" and "Walkin' on Down the Road," but Slovak and Irons brought things to the Chili Peppers that no one else ever has. The drummer's pounding funk backbeats left a blueprint for his successor, Chad Smith, and the manic intro to "Skinny Sweaty Man" sounds like Buddy Rich playing James Brown material. Slovak is at the height of his powers on the rap-rock reggae "Love Trilogy" and funky "Special Secret Song Inside," which gained some notoriety for its anatomical undertones. But Slovak would die of a heroin overdose the following year, with Irons quitting the band afterward from the depression of the loss. Kiedis and Flea would come to grips with their own drug habits and return with Smith and guitarist John Frusciante on Mother's Milk, breaking into the arena circuit with a hit cover of Stevie Wonder's "Higher Ground" -- and leaving Kiedis and Flea to wonder what might have been.


Tracklist:

01 - Fight Like A Brave
02 - Funky Crime
03 - Me And My Friends
04 - Backwoods
05 - Skinny Sweaty Man
06 - Behind The Sun
07 - Subterranean Homesick Blues
08 - Special Secret Song Inside
09 - No Chump Love Sucker
10 - Walkin' On Down The Road
11 - Love Trilogy
12 - Organic Anti-Beat Box Band

Dynamic Range Report
Analyzed: Red Hot Chili Peppers / The Uplift Mofo Party Plan
--------------------------------------------------------------------------------

DR Peak RMS Duration Track
--------------------------------------------------------------------------------
DR8 -1.10 dB -11.18 dB 3:53 01-Fight Like A Brave
DR9 -1.16 dB -11.61 dB 3:01 02-Funky Crime
DR9 -1.03 dB -10.85 dB 3:08 03-Me And My Friends
DR8 -1.39 dB -11.29 dB 3:07 04-Backwoods
DR9 -1.53 dB -11.77 dB 1:17 05-Skinny Sweaty Man
DR8 -1.22 dB -10.70 dB 4:40 06-Behind The Sun
DR10 -0.98 dB -11.82 dB 2:33 07-Subterranean Homesick Blues
DR9 -1.17 dB -10.90 dB 3:15 08-Special Secret Song Inside
DR8 -1.07 dB -10.39 dB 2:42 09-No Chump Love Sucker
DR8 -1.23 dB -10.96 dB 3:50 10-Walkin' On Down The Road
DR8 -1.06 dB -11.87 dB 2:40 11-Love Trilogy
DR7 -1.16 dB -10.34 dB 4:01 12-Organic Anti-Beat Box Band
--------------------------------------------------------------------------------

Number of tracks: 12
Official DR value: DR8

Samplerate: 192000 Hz
Channels: 2
Bits per sample: 24
Bitrate: 5669 kbps
Codec: FLAC
================================================================================


Thanks to the Original customer!

ADVERTISING » Click here to download Ebooks/Magazines for free « ADVERTISING


No comments for the news