Loading...

Ella Fitzgerald & Louis Armstrong - Ella And Louis Again (1957) [Analogue Productions' Remaster 2012] PS3 ISO + FLAC {RE-UP}

Posted By : HDAtall | Date : 14 Mar 2013 10:55:00 | Comments : 2 |
|



Ella Fitzgerald & Louis Armstrong - Ella And Louis Again (1957) [Analogue Productions 2012]
PS3 Rip | ISO | SACD DSD64 2.0 > 1-bit/2.8224 MHz | 43:55 minutes | Scans included | 1,32 GB
or FLAC(converted with foobar2000 to tracks) 24bit/88,2 kHz | Scans included | 805 MB

Ella and Louis Again is a 1957 studio album by Ella Fitzgerald and Louis Armstrong. It is the “sequel” to their 1956 album, Ella and Louis, in contrast to their previous collaboration Ella and Louis, this album does not only feature duets. Mono recordings.

Stylistically, singer Fitzgerald and trumpeter/singer Armstrong had very different histories; he started out in Dixieland before branching out into classic jazz and swing, whereas Fitzgerald started out as a swing-oriented big-band vocalist before becoming an expert bebopper. But the two of them have no problem finding common ground on Ella and Louis Again, which is primarily a collection of vocal duets (with the backing of a solid rhythm section led by pianist Oscar Peterson). One could nit-pick about the fact that Satchmo doesn't take more trumpet solos, but the artists have such a strong rapport as vocalists that the trumpet shortage is only a minor point.


Tracklist:

01. Don't Be That Way
02. Makin' Whoopee
03. They All Laughed
04. Comes Love
05. Autumn In New York
06. Let's Do It (Let's Fall In Love)
07. Stompin' At The Savoy
08. I Won't Dance
09. Gee Baby Ain't I Good To You

Dynamic Range
foobar2000 1.1.17 / Dynamic Range Meter 1.1.1

--------------------------------------------------------------------------------
Analyzed: Ella Fitzgerald & Louis Armstrong / Ella And Louis Again
--------------------------------------------------------------------------------

DR Peak RMS Duration Track
--------------------------------------------------------------------------------
DR12 -6.32 dB -21.96 dB 4:57 01-Don't Be That Way
DR12 -6.75 dB -23.00 dB 3:55 02-Makin' Whoopee
DR12 -8.16 dB -23.22 dB 3:46 03-They All Laughed
DR12 -7.01 dB -20.88 dB 2:26 04-Comes Love
DR13 -9.13 dB -25.47 dB 5:57 05-Autumn In New York
DR12 -9.59 dB -24.54 dB 8:40 06-Let's Do It (Let's Fall In Love)
DR14 -6.34 dB -22.41 dB 5:13 07-Stompin' At The Savoy
DR12 -8.37 dB -22.42 dB 4:45 08-I Won't Dance
DR13 -6.47 dB -22.46 dB 4:16 09-Gee Baby Ain't I Good To You
--------------------------------------------------------------------------------

Number of tracks: 9
Official DR value: DR12

Samplerate: 2822400 Hz / PCM Samplerate: 88200 Hz
Channels: 2
Bits per sample: 24
Bitrate: 5645 kbps
Codec: DSD64



Confirmed to be played on
Cambridge Audio Azur 650BD
Cambridge Audio Azur 751BD
Denon DBP-1611UD
Denon DBP-2012UD
Denon DVD-2910
Denon DVD-3910
Denon DVD-5910
Denon DVD-A11
Marantz DV7600
Marantz UD5005
NAD M5
NAD M55
NAD T585
OPPO BDP-80
OPPO BDP-83
OPPO BDP-83SE
OPPO BDP-93
OPPO BDP-95
OPPO BDP-103
OPPO BDP-105
Pioneer BDP-140
Pioneer BDP-440
Shanling SCD300
Sony BDP-S180
Sony BDP-S370 *(after further analysis it was discovered that there was something really wrong with the sinewaves generated by the Sony, as they were not clean but very fuzzy, like rips of vinyls in bad shape. So cannot recommend it.)
Sony BDP-S370/BX37
Sony BDP-S380
Sony BDP-S470
Sony BDP-S570
Sony BDP-S580
Sony BDP-S770
Sony BDP-S780
Sony BDP-S870
Sony BDP-S970
Sony BDV-E870
Sony BDV-ES570
Sony BDV-F500
Yamaha BD-S1067
Yamaha BD-A1010


Cannot be played on
Accuphase DP-100
Arcam DV137
BBK DV727S
Cambridge Audio DVD89
Cambridge Audio DVD99
Cary DVD8
Denon DVD-1930
Denon DVD-1940
Denon DVD-2900
Denon DVD-2930
Denon DVD-3930
Denon DVD-A1UD
EMM Labs CDSD
Esoteric SZ-1s
Harman/Kardon DVD 47
Integra DPS-6.9
Marantz DV-6001
Marantz DV-6500
Marantz DV-7001
Marantz DV-8400
Marantz DV-9500
Marantz DV-9600
Marantz SA-11S2
Marantz SA-15S1
Marantz SA-7001
Marantz SA-7003
NAD T535
Onkyo C-S5VL
Onkyo DV-506
Onkyo DV-SP504
Onkyo DV-SP506
Oppo DV-980H
Oppo DV-981HD
Oppo DV-983H
Parasound D3
Philips DVP-9000S
Pioneer DV-563A
Pioneer DV-565A
Pioneer DV-565
Pioneer DV-575A
Pioneer DV-585A
Pioneer DV-600AV
Pioneer DV-610AV
Pioneer DV-655A
Pioneer DV-656
Pioneer DV-656A
Pioneer DV-696AV
Pioneer DV-696S
Pioneer DV-733A
Pioneer DV-757Ai
Pioneer DV-868AVi
Pioneer DV-989AVi
Pioneer PD-D6-J
Pioneer PDX-Z9
Sherwood Newcastle SD-871
Sony BDV-E280
Sony DVP-NS90V
Sony DVP-NS700V
Sony DVP-NS900V
Sony DVP-NS955V
Sony DVP-S9000ES
Sony PlayStation3
Sony SCD-555ES
Sony SCD-CE595
Sony SCD-XA3000ES
Sony SCD-XA5400ES
Sony SCD-XB790
Sony SCD-XB940 QS
Sony SCD-XB970QS
Yamaha CD-S1000
Yamaha CD-S2000
Yamaha DVD-S1500


Ready to play (after custom firmware update)
Onkyo DV-SP502E
Oppo DV-970HD
Oppo DV980H
Oppo DV-981HD
Pioneer DV-LX50
Pioneer DV-575A
Pioneer DV-578A
Pioneer DV-585A
Pioneer DV-588A
Pioneer DV-600AV
Pioneer DV-610AV
Pioneer DV-696AV
Samsung HD745/945/950
Samsung HD841/941
Yamaha DVD-S657
Yamaha DVD-S1700
Yamaha DVD-S1800
Yamaha DVD-S2700


Perfectly played on Foobar2000 with "foo_input_sacd" plugin.
Thanks to PS³SACD!


Uncompressed SACD ISO size > 1,77 GB

ADVERTISING » Very Fast Download! « ADVERTISING


Posted By: glufix Date: 25 Nov 2012 20:41:53
Muchas gracias....!!!!
Posted By: Archimago Date: 26 Nov 2012 02:37:18
Thanks!

What's odd however is that this looks like a 44kHz master - no frequencies beyond 22kHz. Very strange for an Analogue Productions mastering. Suggests they did NOT use the analogue master.