Loading...

Hiroshima - Go (Epic FE 40679) (US 1987) (Vinyl 24-96 & 16-44.1)

Posted By : luckburz | Date : 27 Mar 2011 13:47:16 | Comments : 4 |
|



Hiroshima - Go
FLAC | Artwork | 24Bit 96kHz: 861 MB | 16Bit 44.1kHz: 270 MB
Cat#: Epic FE 40679 | Country/Year: US 1987
Genre: Contemporary Jazz | Hoster: Hotfile/Filesonic/Uploaded

MD5 [X] FFP [] CUE [] LOG [] INFO TEXT [X] ARTWORK [X]

webfind [] selfrip [X]








Info:

Hiroshima - Go

Label: Epic
Catalog#: FE 40679, E 40679
Format: Vinyl, LP, Album
Country: US
Released: 1987
Genre: Jazz
Style: Contemporary Jazz

Tracklist:

A1 Go 4:15
A2 I've Been Here Before 5:32
A3 311 4:33
A4 No. 9 4:40

B1 Obon 4:25
B2 Even Then 5:52
B3 Hawaiian Electric 4:35
B4 Why Can't I Love You 4:50

Barcode: 07464-40679-1

Discogs Url: http://www.discogs.com/release/367712


Hiroshima is an American jazz fusion/smooth jazz band formed in 1974 by Sansei Japanese American Dan Kuramoto (wind instruments and band leader), June Kuramoto (koto), Johnny Mori (percussion and taiko), Dave Iwataki (keyboards) and Danny Yamamoto (drums). Named for the Japanese city of Hiroshima, the band is best-known for the fusing of Japanese music and other forms of world music into its playing. Its early jazz-pop R&B sound gave the group a huge following among the African American community and they are regarded as musical pioneers among the Asian American and Japanese American community[citation needed].

Hiroshima's debut album in 1979, the self-titled Hiroshima, contained the single "Roomful of Mirrors," which caught the ear of the "easy-listening" community.

Hiroshima became popular in the New Adult Contemporary community upon the release of its 1985 album Another Place, which spawned the crossover hit "One Wish."

The highlight of Hiroshima's career was being the opening act for the Miles Davis 1990 world tour. Since then, despite moving towards new age music, the group continues to gain a wider audience for its music.

June Kuramoto is the only founding member who is not American-born. She was born in Saitama Prefecture, a part of the Greater Tokyo Area in Japan and moved to Los Angeles at a young age.

The band was featured in a 1976 documentary titled Cruisin' J-Town, directed by Duane Kubo. The group wrote an original song titled "The Moon is a Window to Heaven" for the 1989 film Star Trek V: The Final Frontier. One of their songs from their 1987 album "Go," "Hawaiian Electric," was used for a TV ad campaign in Hawaii for The Hawaiian Electric Company, which featured June in the commercial. Hiroshima also composed the theme music for television cooking show Simply Ming hosted by chef Ming Tsai.

Hiroshima is still active after 30 years of creating music. Its latest album, Little Tõkyõ, continues the group's style of Jazz fused with Asian instruments and synthesizer, which sounds like no one else. In its personal statement the group said, "For us, its always about being different. Its vital to not be the same. We embrace our sound." wikipedia



Tech Log:

=Hardware=
LP>
Shure M97xE>
Dual CS 505-3>
Handcrafted low capacitance custom cables, teflon® insulated & silver-plated coaxial conductors>
Kenwood C1 Custom Revision I>
- Phono Stage input and RIAA equalisation capacitors replaced by Styroflex and Polypropylen types resp.
- Electrolytic capacitors not mounted by manufacturer onto the RIAA stage power Supply refitted (Philips NOS types)
- All electrolytic capacitors in signal chain replaced by foil capacitors
- All old JRC OpAmps replaced by Burr Brown (Phono Stage) and Analog Devices OpAmps resp.>
Handcrafted low capacitance custom cables, polyethylene insulated twinaxial conductors>
Audiotrak Prodigy 7.1 HiFi w/ AD712 OpAmps @ 24/96>
HDD
=Software=
Adobe Audition 3
ClickRepair
Trader´s Little Helper (FLAC)
+16Bit Version:
Weiss Saracon 01.61-27
Dither: POWr3

Date of rip: 2011-03-23
Please keep the info sheet included if you share this!



Links:






RAR-files checksums


If you have problems extracting the RAR files on your HD, please verify these checksums. If they do not match, redownload the not-matching part and try again.

(copy & paste to your editor and save as *.md5 in the folder where the RAR files are located)

16Bit

1ed3ad8993c5c0a781bdbb9e93ee3320 *FHQA-Hi-Go-16B.rar

24Bit

0ad22c2a97b292f41981bbaaf10ae22f *FHQA-Hi-Go-24B.part1.rar
e5d7b130df54e04927b4a1a6d511689e *FHQA-Hi-Go-24B.part2.rar
f91c902c04f029c2dbe6a416476e335e *FHQA-Hi-Go-24B.part3.rar
825425f932dd94a98eef2d1d76d8a4a0 *FHQA-Hi-Go-24B.part4.rar



Dynamic Range Analysis



----------------------------------------------------------------------------------------------
Analyzed folder: F:\=== VINYL RIPS ===\Hiroshima - Go\16Bit\
----------------------------------------------------------------------------------------------
DR Peak RMS Filename
----------------------------------------------------------------------------------------------

DR15 -0.00 dB -17.77 dB A1 - Go.wav
DR14 -0.46 dB -20.57 dB A2 - I've Been Here Before.wav
DR13 -0.95 dB -16.55 dB A3 - 311.wav
DR14 -0.96 dB -17.09 dB A4 - No. 9.wav
DR12 -2.87 dB -16.89 dB B1 - Obon.wav
DR14 -0.59 dB -18.69 dB B2 - Even Then.wav
DR14 -1.72 dB -18.04 dB B3 - Hawaiian Electric.wav
DR14 -3.00 dB -20.18 dB B4 - Why Can't I Love You.wav
----------------------------------------------------------------------------------------------

Number of files: 8
Official DR value: DR14

==============================================================================================








Password:

finest-hq-audio



Check my blog for other lossless uploads:

http://www.avaxhome.ws/blogs/luckburz



ADVERTISING » Click here to download Ebooks/Magazines for free « ADVERTISING


Posted By: Hamamass Date: 27 Mar 2011 17:28:19
Wonderful!
Thanks very much.
For those who are interested in it, this album also features backing vocals by Jon Anderson (of Yes).
His voice is easily recognisable for those who know his voice ;-)
Posted By: beebyte Date: 27 Mar 2011 22:00:29
FANTASTIC share. This is my absolute favorite Hiroshima album. Yet another recaptured recording from my early 1990s "great LP sell-off" THANK YOU!
Posted By: surapong Date: 28 Apr 2011 08:42:26
Great sharing, cheer and thanks
Posted By: jstrummer Date: 02 Oct 2011 19:16:18
All links are dead :-( Any chance you could upload them again?