Loading...

Encyclopedia Mechanical Three Volume [repost]

Posted By : house23 | Date : 06 May 2013 10:04:02 | Comments : 3 |
|



Encyclopedia Mechanical Three Volume
MPG | Mpeg 1114kbps | English | 352x288 | 25fps | 17 hours | MP2 stereo 224kbps | 9.81 GB
Genre: Video Training

This set of videos that explain several issues in mechanics.

ENGINE CONFIGURATIONS and OPERATING SYSTEMS* ENGINE CYCLES and COMPONENTS GASOLINE* ENGINE CYCLES and COMPONENTS DIESEL* ENGINE CYCLES and COMPONENTS ROTARY* ENGINE MAJOR CONSTRUCTIONAL COMPONENTS* ENGINE INTERNAL COMPONENTS and ASSEMBLIES* ENGINE COOLING SYSTEMS and COMPONENTS* ENGINE LUBRICATION SYSTEMS and COMPONENTS.

This set of videos that explain several issues in mechanics:
AUTOMATIC TRANSMISSIONTRANSAXLE

* AUTOMATIC TRANSMISSIONS PRINCIPLES

* AUTOMATIC TRANSMISSIONS LAYOUT and OPERATION

* MANUAL DRIVE TRAINS and AXLES

* Clutches Manual Transmissions

* FINAL DRIVES and DRIVE SHAFTS

SUSPENSION and STEERING
* Vehicle Configurations and Chassis Systems

* Steering Systems and Components

* Suspension Systems and Components

* Wheels and Tire

BRAKES
* Brake Systems and Components Drum

* Brake Systems and Components Disc

* Brake Systems and Components ABS

This set of videos that explain several issues in mechanics

ELECTRICALELECTRONIC SYSTEMS
* Electrical Principles

* Ignition Systems

* Charging, Starting and Lighting Systems

HEATING and AIR CONDITIONING SYSTEMS
* Heating and Air Conditioning Systems

ENGINE PERFORMANCE
* Intake and Exhaust Systems

* Carburetor Fuel Systems

* Diesel Fuel Systems

* EFI Principles

* EFI Engine Management

* Emission Control Systems

GENERIC WORKSHOP TRAINING
* Hand and Power Tools A P

* Hand and Power Tools P Z

Mediainfo:

Format : MPEG-PS
File size : 5.61 MiB
Duration : 33s 760ms
Overall bit rate : 1 394 Kbps
Video #224
ID : 224 (0xE0)
Format : MPEG Video
Format version : Version 1
Format settings, Matrix : Default
Duration : 33s 760ms
Bit rate mode : Constant
Bit rate : 1 114 Kbps
Nominal bit rate : 1 152 Kbps
Width : 352 pixels
Height : 288 pixels
Display aspect ratio : 4:3
Frame rate : 25.000 fps
Scan type : Progressive
Bits/(Pixel*Frame) : 0.440
Stream size : 4.48 MiB (80%)
Audio #192
ID : 192 (0xC0)
Format : MPEG Audio
Format version : Version 1
Format profile : Layer 2
Duration : 33s 697ms
Bit rate mode : Constant
Bit rate : 224 Kbps
Channel(s) : 2 channels
Sampling rate : 44.1 KHz
Resolution : 16 bits
Stream size : 921 KiB (16%)








No mirrors please

ADVERTISING » Free Fast Download! « ADVERTISING


Posted By: AramisPortos Date: 06 May 2013 15:20:51
Thanks Man! I am about to be ready to fix my junk-van to run again! Much appreciated
Posted By: Hustra Date: 08 Jun 2013 09:37:36
help!! part 4 is down, pls reupoad part 4 or all this big download will go to waste :(
Posted By: downloadmaniac Date: 22 Sep 2013 03:29:23
Please reupload it again my friend.. hustra right, some part is missing..