Loading...

Ray Luzier - Double Bass Drum Techniques

Posted By : ParRus | Date : 10 Feb 2012 23:14:15 | Comments : 0 |
|



Ray Luzier - Double Bass Drum Techniques
Hand & Foot Coordination, Drum Fills And Warm-Up Exercises
DVDRip | English | AVI + PDF material | 704 x 528 | XviD ~1837 kbps | 29.970 fps
AC-3 | 192 kbps | 48.0 KHz | 2 channels | 1h 43mn | 1.47 GB
Genre: eLearning / Percussion

This powerhouse rock drummer shares exercises for warm-ups, accent, and double stroke rolls, hand and foot coordination, double bass drum techniques, grooves and fills, building bass drum speed, and more. Included is an instructional booklet. Billy Sheehan and Toshi Hiketa are featured.

Powerhouse rock drummer Ray Luzier takes you through an in-depth survey of modern rock drumming techniques and styles. Through clear, step-by-step explanations and exercises (including a companion booklet), Ray reveals details of essential techniques, including: warm-ups, accent and double stroke roll exercises • hand and foot coordination exercises • independence, motion and ostinato exercises • double bass drum techniques, grooves and fills • building bass drum speed • and more. Ray also demonstrates how to put your skills to work during exciting live performance footage, featuring fellow David Lee Roth Band alumni Billy Sheehan (bass) and Toshi Hiketa (guitar) plus live footage from Japan, featuring bassist Kesuke Nishimoto. 1 hour, 43 minutes. Includes instructional booklet.

MediaInfo:
General
Complete name : Ray Luzier - Double bass drum.avi
Format : AVI
Format/Info : Audio Video Interleave
File size : 1.46 GiB
Duration : 1h 42mn
Overall bit rate : 2 041 Kbps
Writing application : VirtualDubMod 1.5.10.2 (build 2540/release)
Writing library : VirtualDubMod build 2540/release
Video #0
ID : 0
Format : MPEG-4 Visual
Format profile : AdvancedSimple@L5
Format settings, BVOP : Yes
Format settings, QPel : No
Format settings, GMC : No warppoints
Format settings, Matrix : Default (MPEG)
Codec ID : XVID
Codec ID/Hint : XviD
Duration : 1h 42mn
Bit rate : 1 837 Kbps
Width : 704 pixels
Height : 528 pixels
Display aspect ratio : 4:3
Frame rate : 29.970 fps
Resolution : 24 bits
Colorimetry : 4:2:0
Scan type : Progressive
Bits/(Pixel*Frame) : 0.165
Stream size : 1.32 GiB (90%)
Writing library : XviD 1.2.1 (UTC 2008-12-04)
Audio #1
ID : 1
Format : AC-3
Format/Info : Audio Coding 3
Codec ID : 2000
Duration : 1h 42mn
Bit rate mode : Constant
Bit rate : 192 Kbps
Channel(s) : 2 channels
Channel positions : L R
Sampling rate : 48.0 KHz
Stream size : 141 MiB (9%)
Alignment : Aligned on interleaves
Interleave, duration : 33 ms (1.00 video frame)
Interleave, preload duration : 512 ms


ScreenShots





For more, Visit my AH-blog

no mirrors please, Follow The Rules

Download:

Filepost.com
ADVERTISING » Click here to download Ebooks/Magazines for free « ADVERTISING


No comments for the news