Loading...

Jimmy Bruno - Guitar Institute

Posted By : GoodPoster | Date : 30 Mar 2011 09:01:26 | Comments : 3 |
|



Jimmy Bruno - Guitar Institute
Flash Video | English | FLV, PDF Notes | 480 x 270 | VP6 ~450 kbps | 15 fps
MPEG Audio Layer 3 | 128 kbps | 44.1 KHz | 2 channels | 4.98 GB
Genre: eLearning

Jazz guitar legend Jimmy Bruno has launched an online jazz guitar video instruction website. “After almost a year of planning and development, and many weeks of testing, the Jimmy Bruno Guitar Institute is now open for enrollments.” The lessons are geared towards guitarists of all levels: jazz guitar students, jazz guitar teachers, professional guitarists, rock guitarists and fusion guitarists, through a series of instructional videos featuring Jimmy Bruno. And, how much does it cost? “Introductory pricing for charter members in the Jimmy Bruno Guitar Institute is $45.00 per three-month period.” And on why you should consider the Jimmy Bruno Guitar Institute, Jimmy Bruno states: “I teach because I want to hear better music, and see better guitarists in the world. In the past, you had two choices if you wanted to study guitar with me: You could come to Philadelphia and take private lessons in my studio (sorry, I have no openings until well into 2010) , or you could find one of my older guitar instructional videos and try to learn on your own. Sadly, I’ve found that students need feedback from their teacher, and other students, to make fast and steady progress. Otherwise bad habits get locked in.”


More info: http://www.modernguitarist.com/jazz/jimmy-bruno-guitar-institute/

video and audio info
C:\Users\Administrator\Desktop\Jimmy Bruno - Guitar Institute\Classroom Series\Anatomy of a Line.flv
General
Complete name : C:\Users\Administrator\Desktop\Jimmy Bruno - Guitar Institute\Classroom Series\Anatomy of a Line.flv
Format : Flash Video
File size : 50.1 MiB
Duration : 12mn 11s
Overall bit rate : 575 Kbps
Encoded date : Thu Oct 29 23:59:00 2009
Writing application : Sorenson Squeeze / Sorenson Squeeze
Video
Format : VP6
Duration : 12mn 11s
Bit rate : 450 Kbps
Width : 480 pixels
Height : 270 pixels
Display aspect ratio : 16:9
Frame rate : 15.000 fps
Bits/(Pixel*Frame) : 0.231
Stream size : 39.3 MiB (78%)
Audio
Format : MPEG Audio
Format version : Version 1
Format profile : Layer 3
Duration : 12mn 11s
Bit rate mode : Constant
Bit rate : 128 Kbps
Channel(s) : 2 channels
Sampling rate : 44.1 KHz
Resolution : 16 bits
Stream size : 11.2 MiB (22%)

Screenshot






Sample of PDF Notes





-No mirrors, follow the rules-



ADVERTISING » Very Fast Download! « ADVERTISING


Posted By: Creaky Date: 30 Mar 2011 13:29:20
More worthless filesonic only links
Posted By: george_007 Date: 30 Mar 2011 18:30:11
What is the content? I have downloaded torrent of similar size and there were Improvisation level 1 and Improvisation level 2. Are the more levels in this download? Thank you.
Posted By: padsan3 Date: 01 Apr 2011 17:20:00
Thanks for sharing!!!